Полицейский с Рублёвки / Сезон: 1 / Серии: 1-8 из 8 (Илья Куликов) [2016, комедия, криминал, драма, WEBRip]

 Статистика раздачи 
Размер: 5.39 ГБ   |  Зарегистрирован: 12 май 2016, 03:53   |   .torrent скачан: 0 раз
Сидеров: 1  [ 0 байт/сек ]     Личеров: 0  [ 0 байт/сек ]  
  
Аватара пользователя
Главный редактор
Главный редактор
 
Раздал: 78.18 ТБ
Скачал: 3.73 ТБ
Ратио: 21.403
Сообщения: 209757
Стаж: 8 лет 7 месяцев 21 день
Откуда: Санкт-Петербург

Полицейский с Рублёвки
Год выпуска: 2016
Производство
: АВ Контент
Жанр: комедия, криминал, драма
Продолжительность: 00:50:03
Субтитры: нет
Режиссёр: Илья Куликов
В ролях: Александр Петров, Александра Бортич, Сергей Бурунов, Татьяна Бабенкова, Софья Каштанова, Роман Попов, Ростислав Гулбис, Анастасия Стежко, Лилия Лаврова, Виктория Тарасова, Анна Котова, Сергей Калашников, Сергей Штатнов, Владимир Рузанов
Описание: «Полицейский с Рублёвки» — это история о Грише Измайлове, полицейском, который призван охранять покой и порядок в самом элитном районе России, где живут невероятно богатые люди. Ему приходится расследовать дела, в которые впутываются жители Рублевки, и делает он это нередко превышая свои полномочия. Грише около 30 лет, он красив, одинок, богат, циничен, азартен и ко всему относится с изрядной долей черного юмора. Он заботится о младшей сестре-хулиганке, которую вынужден постоянно вытаскивать из неприятностей. Гриша не прикладывая усилий умеет нравиться женщинам и регулярно издевается над своим начальником Яковлевым.
Все раздачи сериала
Сэмпл
Качество: WEBRip
Формат
: AVI
Видео кодек: XviD
Аудио кодек: AC3
Видео: 704x400 (1.76:1), 25 fps, XviD build 73 ~1799 kbps avg, 0.26 bit/pixel
Аудио: 48 kHz, AC3 Dolby Digital, 2/0 (L,R) ch, ~192 kbps
Общее
Полное имя : H:\Полицейский.с.Рублевки.2016.webrip_1.сезон\s01e01.avi
Формат : AVI
Формат/Информация : Audio Video Interleave
Размер файла : 717 Мбайт
Продолжительность : 50 м.
Общий поток : 2002 Кбит/сек
Программа кодирования : VirtualDubMod 1.5.10.3 | www.virtualdub-fr.org || (build 2550/release)
Библиотека кодирования : VirtualDubMod build 2550/release
Видео
Идентификатор : 0
Формат : MPEG-4 Visual
Профиль формата : Advanced Simple@L5
Параметр BVOP формата : 2
Параметр QPel формата : Нет
Параметр GMC формата : Без точки перехода
Параметр матрицы формата : Выборочная
Идентификатор кодека : XVID
Идентификатор кодека/Подсказка : XviD
Продолжительность : 50 м.
Битрейт : 1800 Кбит/сек
Ширина : 704 пикселя
Высота : 400 пикселей
Соотношение сторон : 16:9
Частота кадров : 25,000 кадров/сек
Цветовое пространство : YUV
Субдискретизация насыщенности : 4:2:0
Битовая глубина : 8 бит
Тип развёртки : Прогрессивная
Метод сжатия : С потерями
Бит/(Пиксели*Кадры) : 0.256
Размер потока : 644 Мбайт (90%)
Библиотека кодирования : XviD 73
Аудио
Идентификатор : 1
Формат : AC-3
Формат/Информация : Audio Coding 3
Расширение режима : CM (complete main)
Параметр Endianness формата : Big
Идентификатор кодека : 2000
Продолжительность : 50 м.
Вид битрейта : Постоянный
Битрейт : 192 Кбит/сек
Каналы : 2 канала
Расположение каналов : Front: L R
Частота : 48,0 КГц
Битовая глубина : 16 бит
Метод сжатия : С потерями
Размер потока : 68,7 Мбайт (10%)
Выравнивание : Разделение по промежуткам
Продолжительность промежутка : 40 мс. (1,00 видеокадр)
Время предзагрузки промежутка : 500 мс.
Релиз группы:


Не забывайте говорить Спасибо. Не уходите с раздачи!   
Торрент: Зарегистрирован [12 май 2016, 03:53]
Статус:
Проверен
 
.torrent скачан: 0 раз
Хэш: dfac2d83c5730bc20905009c9927bcc4908fc8e3
Размер: 5.39 ГБ (5 791 512 576 байт)
   Стать Автором раздачи
   
Цитата
  • Похожие торренты
    Ответы
    Просмотры
    Последнее сообщение

Вернуться в Полицейский с Рублёвки

Кто сейчас на конференции

Сейчас эту тему просматривают: нет зарегистрированных пользователей и гости: 1