Полицейский с Рублёвки / Сезон: 1 / Серии: 1-8 из 8 (Илья Куликов) [2016, комедия, криминал, драма, HDTV 1080i]

 Статистика раздачи 
Размер: 21.6 ГБ   |  Зарегистрирован: 23 фев 2018, 19:37   |   .torrent скачан: 53 раз
Сидеров: 38  [ 0 байт/сек ]     Личеров: 11  [ 0 байт/сек ]  
  
Аватара пользователя
Главный редактор
Главный редактор
 
Раздал: 79.9 ТБ
Скачал: 3.74 ТБ
Ратио: 21.772
Сообщения: 210685
Стаж: 8 лет 8 месяцев
Откуда: Санкт-Петербург

Полицейский с Рублёвки
Год выпуска: 2016
Производство: АВ Контент
Жанр: комедия, криминал, драма
Продолжительность: ~00:48:00 серия
Субтитры: нет
Режиссёр: Илья Куликов
В ролях: Александр Петров, Александра Бортич, Сергей Бурунов, Татьяна Бабенкова, Софья Каштанова, Роман Попов, Ростислав Гулбис, Анастасия Стежко, Лилия Лаврова, Виктория Тарасова, Анна Котова, Сергей Калашников, Сергей Штатнов, Владимир Рузанов
Описание: «Полицейский с Рублёвки» — это история о Грише Измайлове, полицейском, который призван охранять покой и порядок в самом элитном районе России, где живут невероятно богатые люди. Ему приходится расследовать дела, в которые впутываются жители Рублевки, и делает он это нередко превышая свои полномочия. Грише около 30 лет, он красив, одинок, богат, циничен, азартен и ко всему относится с изрядной долей черного юмора. Он заботится о младшей сестре-хулиганке, которую вынужден постоянно вытаскивать из неприятностей. Гриша не прикладывая усилий умеет нравиться женщинам и регулярно издевается над своим начальником Яковлевым.

Реклама: Нет.

Все раздачи сериала
Sample
Качество: HDTV 1080i - daboen
Формат: TS
Видео кодек: AVC
Аудио кодек: MP2
Видео: MPEG4 AVC Video, H264, 16:9, 1920x1080, 25 fps, ~7800 kbps, 0.152 bit/pixel
Аудио: MP2, 2 ch, 192 kbps, 16 bits, 48.0 KHz
General
ID : 1 (0x1)
Complete name : J:\Policejskij.s.Rublyovki.2016.HDTV.1080i\Policejskij.s.Rublyovki.01.2016.HDTV.1080i.ts
Format : MPEG-TS
File size : 2.89 GiB
Duration : 48mn 55s
Overall bit rate mode : Variable
Overall bit rate : 8 469 Kbps
Video
ID : 2741 (0xAB5)
Menu ID : 1257 (0x4E9)
Format : AVC
Format/Info : Advanced Video Codec
Format profile : High@L4.0
Format settings, CABAC : Yes
Format settings, ReFrames : 4 frames
Codec ID : 27
Duration : 48mn 55s
Bit rate : 7 857 Kbps
Width : 1 920 pixels
Height : 1 080 pixels
Display aspect ratio : 16:9
Frame rate : 25.000 fps
Color space : YUV
Chroma subsampling : 4:2:0
Bit depth : 8 bits
Scan type : MBAFF
Bits/(Pixel*Frame) : 0.152
Stream size : 2.68 GiB (93%)
Audio
ID : 2742 (0xAB6)
Menu ID : 1257 (0x4E9)
Format : MPEG Audio
Format version : Version 1
Format profile : Layer 2
Mode : Joint stereo
Mode extension : Intensity Stereo + MS Stereo
Codec ID : 3
Duration : 48mn 55s
Bit rate mode : Constant
Bit rate : 192 Kbps
Channel count : 2 channels
Sampling rate : 48.0 KHz
Compression mode : Lossy
Delay relative to video : -160ms
Stream size : 67.2 MiB (2%)
Language : Russian

Не забывайте говорить Спасибо. Не уходите с раздачи!   
Торрент: Зарегистрирован [23 фев 2018, 19:37]
Статус:
Проверен
 
.torrent скачан: 53 раз
Хэш: 2cbb876bf4793223ce667239d04123611c078a87
Размер: 21.6 ГБ (23 195 905 864 байт)
   Стать Автором раздачи
   
Цитата
  • Похожие торренты
    Ответы
    Просмотры
    Последнее сообщение

Вернуться в Полицейский с Рублёвки

Кто сейчас на конференции

Сейчас эту тему просматривают: нет зарегистрированных пользователей и гости: 1