Полицейский с Рублёвки / Сезон: 3 / Серии: 1-8 из 8 (Илья Куликов) [2018, комедия, криминал, драма, HDTV 1080i]

 Статистика раздачи 
Размер: 24.2 ГБ   |  Зарегистрирован: 16 апр 2018, 20:40   |   .torrent скачан: 53 раз
Сидеров: 110  [ 0 байт/сек ]     Личеров: 24  [ 0 байт/сек ]  
  
Аватара пользователя
Главный редактор
Главный редактор
 
Раздал: 78.18 ТБ
Скачал: 3.73 ТБ
Ратио: 21.403
Сообщения: 209757
Стаж: 8 лет 7 месяцев 22 дня
Откуда: Санкт-Петербург

Полицейский с Рублёвки 3. Снова дома
Год выпуска: 2018
Производство: LEGIO FELIX
Жанр: комедия, криминал, драма
Продолжительность: ~00:48:00 серия
Субтитры: нет
Режиссёр: Илья Куликов
В ролях: Александр Петров, Сергей Бурунов, Роман Попов, Георгий Клинаев, Ирина Вилкова, Татьяна Бабенкова, Софья Каштанова, Ростислав Гулбис, Сергей Штатнов, Александра Бортич, Александр Дерепко, Светлана Суханова, Мария Безродная, Анна Котова, Велимир Русаков, Константин Быков
Описание: В третьей части сериала Гриша Измайлов с триумфом возвращается на Рублёвку в новой должности начальника родного отдела. Его радость разделяют все вернувшиеся домой коллеги. Все, кроме одного: бывший начальник Яковлев теперь всего лишь глава оперов. И готов на всё, лишь бы вернуть себе власть и сбросить гнёт ненавистного Измайлова.

Реклама: Нет.
Кинопоиск
Все раздачи сериала
Sample
Качество: HDTV 1080i - Nikolspup
Формат: TS
Видео кодек: AVC
Аудио кодек: MP2
Видео: MPEG4 AVC Video, H264, 16:9, 1920x1080, 25 fps, ~7800 kbps, 0.152 bit/pixel
Аудио: MP2, 2 ch, 192 kbps, 16 bits, 48.0 KHz
Раздача ведётся путём добавления новых серий, при каждом добавлении создаётся новый торрент. Чтобы начать докачку новой серии, пользователям необходимо сделать следующее:
- Остановить скачивание.
- Удалить старый торрент у себя из клиента (старые серии удалять не надо).
- Скачать новый торрент и запустить его у себя в клиенте вместо старого, при этом указать клиенту путь в старую папку куда и должно происходить скачивание новых серий.
Ваш клиент при этом должен произвести хеширование (проверку) старой папки (если не производит сам - помогите ему сделать это), и будет докачивать только те серии которых у вас ещё нет. Старые серии при этом не удаляются, а продолжают раздаваться!
Если вы уже удалили старые серии, то предотвратить повторную закачку старых серий можно, отжав галочку в соответствующих местах при запуске нового торрента. По возможности, желательно не удалять старые серии как можно дольше, чтобы релизер не столько продолжал раздавать старые серии, а смог сконцентрироваться на новых.
General
ID : 1 (0x1)
Complete name : D:\Policejskij.s.rublevki.03.2018.HDTV.(1080i).Nikolspup\Policejskij.s.rublevki.03.(01.seriya.iz.08).2018.HDTV.(1080i).Nikolspup.ts
Format : MPEG-TS
File size : 2.85 GiB
Duration : 48mn 48s
Overall bit rate mode : Variable
Overall bit rate : 8 345 Kbps
Video
ID : 256 (0x100)
Menu ID : 1 (0x1)
Format : AVC
Format/Info : Advanced Video Codec
Format profile : High@L4.1
Format settings, CABAC : Yes
Format settings, ReFrames : 3 frames
Codec ID : 27
Duration : 48mn 48s
Bit rate mode : Constant
Bit rate : 7 869 Kbps
Width : 1 920 pixels
Height : 1 080 pixels
Display aspect ratio : 16:9
Frame rate : 25.000 fps
Standard : PAL
Color space : YUV
Chroma subsampling : 4:2:0
Bit depth : 8 bits
Scan type : Progressive
Bits/(Pixel*Frame) : 0.152
Stream size : 2.64 GiB (93%)
Color primaries : BT.709
Transfer characteristics : BT.709
Matrix coefficients : BT.709
Audio
ID : 257 (0x101)
Menu ID : 1 (0x1)
Format : MPEG Audio
Format version : Version 1
Format profile : Layer 2
Codec ID : 3
Duration : 48mn 48s
Bit rate mode : Constant
Bit rate : 192 Kbps
Channel count : 2 channels
Sampling rate : 48.0 KHz
Compression mode : Lossy
Stream size : 67.0 MiB (2%)
Language : English

Не забывайте говорить Спасибо. Не уходите с раздачи!   
Торрент: Зарегистрирован [16 апр 2018, 20:40]
Статус:
Проверен
 
.torrent скачан: 53 раз
Хэш: 342ac72ddb005efe60bfefc85e72c2d8b01e6c0f
Размер: 24.2 ГБ (25 989 838 160 байт)
   Стать Автором раздачи
   
Цитата
  • Похожие торренты
    Ответы
    Просмотры
    Последнее сообщение

Вернуться в Полицейский с Рублёвки

Кто сейчас на конференции

Сейчас эту тему просматривают: нет зарегистрированных пользователей и гости: 1