Полицейский с Рублевки / Серии: 1-8 из 8 (Илья Куликов) [2016, драма, комедия,криминал, SATRip-AVC]

 Статистика раздачи 
Размер: 4.81 ГБ   |  Зарегистрирован: 21 мар 2016, 20:49   |   .torrent скачан: 10245 раз
Сидеров: 54  [ 0 байт/сек ]     Личеров: 15  [ 0 байт/сек ]  
  
Аватара пользователя
Главный редактор
Главный редактор
 
Раздал: 78.18 ТБ
Скачал: 3.73 ТБ
Ратио: 21.403
Сообщения: 209757
Стаж: 8 лет 7 месяцев 22 дня
Откуда: Санкт-Петербург

Полицейский с Рублевки




Год выпуска: 2016
Производство: Россия,«АВ Контент»
Жанр: драма, комедия,криминал
Продолжительность: 00:47:00
Субтитры: нет



Режиссёр:Илья Куликов



В ролях: Александр Петров , Александра Бортич, Сергей Бурунов, Татьяна Бабенкова, Софья Каштанова, Роман Попов, Ростислав Гулбис, Анастасия Стежко, Лилия Лаврова, Виктория Тарасова, Анна Котова, Сергей Калашников, Сергей Штатнов, Владимир Рузанов



Описание: История о Грише Измайлове, полицейском, который призван охранять покой и порядок в самом элитном поселке России, где живут невероятно богатые люди. Ему приходится расследовать дела, в которые впутываются жители Рублевки, и делает он это нередко превышая свои полномочия. Грише около 30 лет, он красив, одинок, богат, циничен, азартен и ко всему относится с изрядной долей черного юмора. Он заботится о младшей сестре-хулиганке, которую вынужден постоянно вытаскивать из неприятностей. Гриша, не прикладывая усилий, умеет нравиться женщинам и регулярно издевается над своим начальником Яковлевым.



Все раздачи сериала




Качество: SATRip-AVC
Формат: MKV
Видео кодек: H.264
Аудио кодек: AC3
Видео: MPEG-4 AVC, 720х400,25fps,~1794 Кбит/сек,Bits/Pixel 0.222
Аудио: AC3, 48 kHz, ~192 Kbps, 2 канала


Общее
Уникальный идентификатор : 192694837420820521926892176720285698772 (0x90F7ACFE11386615AC55F09D2CD88AD4)
Полное имя : I:\Полицейский с рублевки\Полицейский с рублевки_01 серия rip by_Aleksan55.mkv
Формат : Matroska
Версия формата : Version 2
Размер файла : 637 Мбайт
Продолжительность : 49 м.
Общий поток : 1794 Кбит/сек
Дата кодирования : UTC 2016-03-21 20:43:12
Программа кодирования : mkvmerge v7.8.0 ('River Man') 32bit built on Apr 3 2015 12:11:22
Библиотека кодирования : libebml v1.3.1 + libmatroska v1.4.2
Видео
Идентификатор : 1
Формат : AVC
Формат/Информация : Advanced Video Codec
Профиль формата : High@L4.1
Параметр CABAC формата : Да
Параметр ReFrames формата : 12 кадров
Идентификатор кодека : V_MPEG4/ISO/AVC
Продолжительность : 49 м.
Битрейт : 1600 Кбит/сек
Ширина : 720 пикселей
Высота : 400 пикселей
Соотношение сторон : 16:9
Режим частоты кадров : Постоянный
Частота кадров : 25,000 кадров/сек
Цветовое пространство : YUV
Субдискретизация насыщенности : 4:2:0
Битовая глубина : 8 бит
Тип развёртки : Прогрессивная
Бит/(Пиксели*Кадры) : 0.222
Размер потока : 556 Мбайт (87%)
Библиотека кодирования : x264 core 146 r2538 121396c
Настройки программы : cabac=1 / ref=12 / deblock=1:-2:-2 / analyse=0x3:0x103 / me=umh / subme=9 / psy=1 / psy_rd=1.00:0.25 / mixed_ref=0 / me_range=32 / chroma_me=1 / trellis=2 / 8x8dct=1 / cqm=0 / deadzone=6,6 / fast_pskip=1 / chroma_qp_offset=-4 / threads=2 / lookahead_threads=1 / sliced_threads=0 / nr=0 / decimate=0 / interlaced=0 / bluray_compat=0 / constrained_intra=0 / bframes=12 / b_pyramid=2 / b_adapt=1 / b_bias=0 / direct=3 / weightb=1 / open_gop=0 / weightp=2 / keyint=250 / keyint_min=25 / scenecut=40 / intra_refresh=0 / rc_lookahead=40 / rc=2pass / mbtree=1 / bitrate=1600 / ratetol=1.0 / qcomp=0.80 / qpmin=0 / qpmax=69 / qpstep=4 / cplxblur=20.0 / qblur=0.5 / ip_ratio=1.10 / aq=1:1.00
Default : Да
Forced : Нет
Цветовой диапазон : Limited
Основные цвета : BT.601 PAL
Характеристики трансфера : BT.470 System B, BT.470 System G
Коэффициенты матрицы : BT.601
Аудио
Идентификатор : 2
Формат : AC-3
Формат/Информация : Audio Coding 3
Расширение режима : CM (complete main)
Параметр Endianness формата : Big
Идентификатор кодека : A_AC3
Продолжительность : 49 м.
Вид битрейта : Постоянный
Битрейт : 192 Кбит/сек
Каналы : 2 канала
Расположение каналов : Front: L R
Частота : 48,0 КГц
Метод сжатия : С потерями
Размер потока : 68,2 Мбайт (11%)
Default : Да
Forced : Нет
Внимание! Раздача ведётся путём добавления новых серий; при каждом добавлении создаётся новый торрент.
Чтобы начать докачку новой серии, пользователям необходимо сделать следующее:
1. Остановить скачивание;
2. Удалить старый торрент у себя из клиента (старые серии удалять не надо);
3. Скачать новый торрент и запустить его у себя в клиенте вместо старого, при этом указать клиенту путь в старую папку куда и должно происходить скачивание новых серий. Ваш клиент при этом должен произвести хеширование (проверку) старой папки и будет докачивать только те серии, которых у вас ещё нет. Старые серии при этом не удаляются, а продолжают раздаваться! Eсли вы уже удалили старые серии, то предотвратить повторную закачку старых серий можно, отжав галочку в соответствующих местах при запуске нового торрента.


Рекламы нет.
Добавлена 8 серия.
Не забывайте говорить Спасибо. Не уходите с раздачи!   
Торрент: Зарегистрирован [21 мар 2016, 20:49]
Статус:
Проверен
 
.torrent скачан: 10245 раз
Хэш: 0a53cc4ac331cc1d4f16d2f9ab6b510c12aac5f7
Размер: 4.81 ГБ (5 169 617 207 байт)
   Стать Автором раздачи
   
Цитата
  • Похожие торренты
    Ответы
    Просмотры
    Последнее сообщение

Вернуться в Полицейский с Рублёвки

Кто сейчас на конференции

Сейчас эту тему просматривают: нет зарегистрированных пользователей и гости: 1