Полицейский с рублёвки / Сезон: 1 Серии: 1-8 (08) (Илья Куликов) [2016, Комедия, криминал, драма, DVB]

 Статистика раздачи 
Размер: 14.39 ГБ   |  Зарегистрирован: 03 апр 2016, 10:55   |   .torrent скачан: 0 раз
Сидеров: 35  [ 0 байт/сек ]     Личеров: 11  [ 0 байт/сек ]  
  
Аватара пользователя
Главный редактор
Главный редактор
 
Раздал: 78.18 ТБ
Скачал: 3.73 ТБ
Ратио: 21.403
Сообщения: 209757
Стаж: 8 лет 7 месяцев 21 день
Откуда: Санкт-Петербург


Полицейский с рублёвки
«Закон и порядок. Дорого»

Год выпуска: 2016
Производство: АВ Контент
Жанр: Комедия, криминал, драма
Продолжительность: ~ 00:50:00
Субтитры: нет
Режиссёр: Илья Куликов
В ролях: Александр Петров, Александра Бортич, Сергей Бурунов, Татьяна Бабенкова, Софья Каштанова, Роман Попов, Ростислав Гулбис, Анастасия Стежко, Лилия Лаврова, Виктория Тарасова, Анна Котова, Сергей Калашников, Сергей Штатнов, Владимир Рузанов
Описание: «Полицейский с Рублёвки» — это история о Грише Измайлове, полицейском, который призван охранять покой и порядок в самом элитном районе России, где живут невероятно богатые люди. Ему приходится расследовать дела, в которые впутываются жители Рублевки, и делает он это нередко превышая свои полномочия. Грише около 30 лет, он красив, одинок, богат, циничен, азартен и ко всему относится с изрядной долей черного юмора. Он заботится о младшей сестре-хулиганке, которую вынужден постоянно вытаскивать из неприятностей. Гриша не прикладывая усилий умеет нравиться женщинам и регулярно издевается над своим начальником Яковлевым.
Все раздачи сериала

Качество: DVB
Формат: MPEG-TS
Видео кодек: MPEG2
Аудио кодек: MP2
Видео: MPEG 2, 720x576 (4:3), 25.000 fps, 4 803 Kbps (0.463 bit/pixel)
Аудио: MPEG Audio at 192 Кбит/сек Infos : 2 канала, 48,0 КГц
General
ID : 1 (0x1)
Complete name : D:\Фильмы\Полицейский с Рублёвки 2016 DVB\Politseyskiy.s.Rublyovki.s01s01.2016.DVB.ts
Format : MPEG-TS
File size : 1.91 GiB
Duration : 50mn 8s
Overall bit rate mode : Variable
Overall bit rate : 5 460 Kbps
Video
ID : 770 (0x302)
Menu ID : 768 (0x300)
Format : MPEG Video
Format version : Version 2
Format profile : Main@Main
Format settings, BVOP : Yes
Format settings, Matrix : Custom
Format settings, GOP : Variable
Codec ID : 2
Duration : 50mn 8s
Bit rate mode : Variable
Bit rate : 4 803 Kbps
Maximum bit rate : 15.0 Mbps
Width : 720 pixels
Height : 576 pixels
Display aspect ratio : 4:3
Frame rate : 25.000 fps
Standard : PAL
Color space : YUV
Chroma subsampling : 4:2:0
Bit depth : 8 bits
Scan type : Progressive
Scan order : Top Field First
Compression mode : Lossy
Bits/(Pixel*Frame) : 0.463
Time code of first frame : 00:00:00:00
Time code source : Group of pictures header
GOP, Open/Closed : Open
Stream size : 1.68 GiB (88%)
Audio #1
ID : 771 (0x303)
Menu ID : 768 (0x300)
Format : MPEG Audio
Format version : Version 1
Format profile : Layer 2
Codec ID : 3
Duration : 50mn 8s
Bit rate mode : Constant
Bit rate : 192 Kbps
Channel(s) : 2 channels
Sampling rate : 48.0 KHz
Compression mode : Lossy
Delay relative to video : 5ms
Stream size : 68.9 MiB (4%)
Language : Russian
Audio #2
ID : 772 (0x304)
Menu ID : 768 (0x300)
Format : MPEG Audio
Format version : Version 1
Format profile : Layer 2
Codec ID : 3
Duration : 50mn 8s
Bit rate mode : Constant
Bit rate : 192 Kbps
Channel(s) : 2 channels
Sampling rate : 48.0 KHz
Compression mode : Lossy
Delay relative to video : 10ms
Stream size : 68.9 MiB (4%)
Language : English





Не забывайте говорить Спасибо. Не уходите с раздачи!   
Торрент: Зарегистрирован [03 апр 2016, 10:55]
Статус:
Проверен
 
.torrent скачан: 0 раз
Хэш: a6d4d8cb61efa4f003de257a3879eb4a8170c370
Размер: 14.39 ГБ (15 452 480 836 байт)
   Стать Автором раздачи
   
Цитата
  • Похожие торренты
    Ответы
    Просмотры
    Последнее сообщение

Вернуться в Полицейский с Рублёвки

Кто сейчас на конференции

Сейчас эту тему просматривают: нет зарегистрированных пользователей и гости: 1