Форс-мажоры / Костюмы в законе / Suits / Сезон 4 (1-16 серии из 16) (Кевин Брэй, Антон Кроппер, Майкл Смит) [2014 г., драма, комедия, WEB-DLRip] DVO + Original

 Статистика раздачи 
Размер: 8.94 ГБ   |  Зарегистрирован: 26 сен 2015, 10:36   |   .torrent скачан: 21 раз
Сидеров: 39  [ 0 байт/сек ]     Личеров: 11  [ 0 байт/сек ]  
  
Аватара пользователя
 
Раздал: 2.49 ТБ
Скачал: 50.54 ГБ
Ратио: 50.456
Сообщения: 208998
Стаж: 3 года 16 дней

Форс-мажоры / Костюмы в законе / Suits / Сезон 4


Год выпуска: 2014
Жанр: драма, комедия
Страна: США
Режиссер: Кевин Брэй, Антон Кроппер, Майкл Смит
В ролях: Гэбриел Махт, Патрик Дж. Адамс, Рик Хоффман, Меган Маркл, Сара Рафферти, Джина Торрес, Ванесса Рэй, Том Липински, Макс Топплин, Ребекка Скул, Джулиан ДеЗотти, Бен Льюис
Сюжет фильма:
Убегая после неудачной попытки сбыта наркотиков, юрист-самоучка Майк Росс, выдающий себя за выпускника Гарварда, попадает на собеседование к одному из лучших адвокатов по сделкам Нью-Йорка Харви Спектру. Устав от скучных соискателей, мечтающих «верой и правдой служить букве закона», Харви рискует и нанимает Майка: у парня врожденный талант и фотографическая память. Так рождается один из самых неоднозначных, но, в то же время, и самых блестящих тандемов законников на Манхэттене.


Качество видео: WEB-DLRip

Продолжительность: ~ 00:43:00
Формат: AVI
Видео: XviD, 720х400, 1500 kbps
Аудио #1: русский, двухголосый закадровый [профессиональный], MP3 2.0, 192 kbps
Аудио #2: английский, оригинал, MP3 2.0, 192 kbps
4x01 11/Jun/2014 One-Two-Three Go...
4x02 18/Jun/2014 Breakfast, Lunch and Dinner
4x03 25/Jun/2014 Two in the Knees
4x04 09/Jul/2014 Leveraged
4x05 16/Jul/2014 Pound of Flesh
4x06 23/Jul/2014 Litt the Hell Up
4x07 30/Jul/2014 We're Done
4x08 06/Aug/2014 Exposure
4x09 13/Aug/2014 Gone
4x10 20/Aug/2014 This is Rome
4x11 28/Jan/2015 Enough Is Enough
4x12 04/Feb/2015 Respect
4x13 11/Feb/2015 Fork in the Road
4x14 18/Feb/2015 Derailed
4x15 25/Feb/2015 Intent
4x16 04/Mar/2015 Not Just a Pretty Face
Код:
Общее
Полное имя                               : \Suits (S4)\Suits.s04e01.avi
Формат                                   : AVI
Формат/Информация                        : Audio Video Interleave
Размер файла                             : 584 Мбайт
Продолжительность                        : 43 м.
Общий поток                              : 1898 Кбит/сек
Программа кодирования                    : VirtualDubMod 1.5.10.3 (build 2550/release)
Библиотека кодирования                   : VirtualDubMod build 2550/release

Видео
Идентификатор                            : 0
Формат                                   : MPEG-4 Visual
Профиль формата                          : Advanced Simple@L5
Параметр BVOP формата                    : 1
Параметр QPel формата                    : Нет
Параметр GMC формата                     : Без точки перехода
Параметр матрицы формата                 : Default (H.263)
Идентификатор кодека                     : XVID
Идентификатор кодека/Подсказка           : XviD
Продолжительность                        : 43 м.
Битрейт                                  : 1500 Кбит/сек
Ширина                                   : 720 пикселей
Высота                                   : 400 пикселей
Соотношение сторон                       : 16:9
Частота кадров                           : 23,976 кадра/сек
Цветовое пространство                    : YUV
Субдискретизация насыщенности            : 4:2:0
Битовая глубина                          : 8 бит
Тип развёртки                            : Прогрессивная
Метод сжатия                             : С потерями
Бит/(Пиксели*Кадры)                      : 0.217
Размер потока                            : 462 Мбайт (79%)
Библиотека кодирования                   : XviD 1.2.1 (UTC 2008-12-04)

Аудио #1
Идентификатор                            : 1
Формат                                   : MPEG Audio
Версия формата                           : Version 1
Профиль формата                          : Layer 3
Режим                                    : Joint stereo
Расширение режима                        : MS Stereo
Идентификатор кодека                     : 55
Идентификатор кодека/Подсказка           : MP3
Продолжительность                        : 43 м.
Вид битрейта                             : Постоянный
Битрейт                                  : 192 Кбит/сек
Каналы                                   : 2 канала
Частота                                  : 48,0 КГц
Метод сжатия                             : С потерями
Размер потока                            : 59,1 Мбайт (10%)
Выравнивание                             : Соединение по промежуткам
Продолжительность промежутка             : 42  мс. (1,00 видеокадр)
Время предзагрузки промежутка            : 504  мс.
Библиотека кодирования                   : LAME3.98.4

Аудио #2
Идентификатор                            : 2
Формат                                   : MPEG Audio
Версия формата                           : Version 1
Профиль формата                          : Layer 3
Режим                                    : Joint stereo
Расширение режима                        : MS Stereo
Идентификатор кодека                     : 55
Идентификатор кодека/Подсказка           : MP3
Продолжительность                        : 43 м.
Вид битрейта                             : Постоянный
Битрейт                                  : 192 Кбит/сек
Каналы                                   : 2 канала
Частота                                  : 48,0 КГц
Метод сжатия                             : С потерями
Размер потока                            : 59,1 Мбайт (10%)
Выравнивание                             : Соединение по промежуткам
Продолжительность промежутка             : 42  мс. (1,00 видеокадр)
Время предзагрузки промежутка            : 504  мс.
Библиотека кодирования                   : LAME3.98.4
Релиз группы:


Для увеличения картинки щелкните мышкой по превью
Не забывайте говорить Спасибо. Не уходите с раздачи!   
Торрент: Зарегистрирован [26 сен 2015, 10:36]
Статус:
Проверен
 
.torrent скачан: 21 раз
Хэш: c4edf241349243bc2baa033d3267d40b37a5d135
Размер: 8.94 ГБ (9 598 685 184 байт)
   Стать Автором раздачи
   
Ничто так не успокаивает, как инструктаж по технике безопасности.
Цитата
  • Похожие торренты
    Ответы
    Просмотры
    Последнее сообщение

Вернуться в Форс-мажоры / Suits

Кто сейчас на конференции

Сейчас эту тему просматривают: нет зарегистрированных пользователей и гости: 1