Форс-мажоры / Костюмы в законе / Suits / Сезон: 3 / Серии: 1-16 (16) (Кевин Брэй, Джон Скотт, Майкл Смит) [2013, Драма, WEB-DL 720p] MVO (To4ka) + Original + Subs (Rus, To4ka Translate) + Subs (Eng)

 Статистика раздачи 
Размер: 23.63 ГБ   |  Зарегистрирован: 13 авг 2014, 07:55   |   .torrent скачан: 0 раз
Сидеров: 2  [ 0 байт/сек ]     Личеров: 1  [ 0 байт/сек ]  
  
Аватара пользователя
 
Раздал: 2.5 ТБ
Скачал: 50.54 ГБ
Ратио: 50.649
Сообщения: 209007
Стаж: 3 года 18 дней



Форс-мажоры / Костюмы в законе / Suits


Год выпуска: 2013
Страна: США | USA Network
Жанр: Драма
Продолжительность: 00:42:00
Перевод: Любительский многоголосый закадровый - To4ka
Субтитры: Русские (To4kaTranslate), английские

Режиссёр: Кевин Брэй, Джон Скотт и др

В ролях: Гэбриел Махт, Патрик Дж. Адамс, Рик Хоффман, Меган Маркл, Сара Рафферти, Джина Торрес, Ванесса Рэй, Том Липински, Макс Топплин, Ребекка Скул, Джулиан ДеЗотти, Бен Льюис и др.

Описание: Убегая после неудачной попытки сбыта наркотиков, юрист-самоучка Майк Росс, выдающий себя за выпускника Гарварда, попадает на собеседование к одному из лучших адвокатов по сделкам Нью-Йорка Харви Спектру. Устав от скучных соискателей, мечтающих «верой и правдой служить букве закона», Харви рискует и нанимает Майка: у парня врожденный талант и фотографическая память. Так рождается один из самых неоднозначных, но, в то же время, и самых блестящих тандемов законников на Манхэттене.

Сэмпл: http://multi-up.com/886196
Качество: WEB-DL 720p
Формат: MKV
Видео: AVC, 1280x720 (16/9), 23.976 fps, 3922 Kbps (0.177 bit/pixel)
Аудио: AC3, 48.0 KHz, 6 ch, 384 Kbps (Russian)
Аудио 2: AC3, 48.0 KHz, 6 ch, 384 Kbps

Релиз: по заказу SEOPULT
Озвучка: Александр Нелюбин, Андрей Хомяков, Ирина Грачева и Марина Комчарукова
Перевод: Релиз-группа "To4kaTranslate"
Редакция: Оксана Графутко



Общее
Полное имя : L:\Костюмы в законе s03 720p To4ka\Suits.s03e01.WEB-DL.720p.Rus.Eng.To4ka.TV.mkv
Формат : Matroska
Версия формата : Version 2
Размер файла : 1,64 Гбайт
Продолжительность : 47 м.
Общий поток : 4909 Кбит/сек
Дата кодирования : UTC 2013-07-19 13:18:06
Программа кодирования : mkvmerge v5.8.0 ('No Sleep / Pillow') built on Sep 2 2012 15:37:04
Библиотека кодирования : libebml v1.2.3 + libmatroska v1.3.0

Видео
Идентификатор : 1
Формат : AVC
Формат/Информация : Advanced Video Codec
Профиль формата : High@L3.1
Параметр CABAC формата : Нет
Параметр ReFrames формата : 2 кадра
Идентификатор кодека : V_MPEG4/ISO/AVC
Продолжительность : 47 м.
Битрейт : 4044 Кбит/сек
Ширина : 1280 пикселей
Высота : 720 пикселей
Соотношение сторон : 16:9
Режим частоты кадров : Постоянный
Частота кадров : 23,976 кадра/сек
Цветовое пространство : YUV
Субдискретизация насыщенности : 4:2:0
Битовая глубина : 8 бит
Тип развёртки : Прогрессивная
Бит/(Пиксели*Кадры) : 0.183
Размер потока : 1,35 Гбайт (82%)
Язык : English
Default : Да
Forced : Нет
Основные цвета : BT.709
Характеристики трансфера : BT.709
Коэффициенты матрицы : BT.709

Аудио #1
Идентификатор : 2
Формат : AC-3
Формат/Информация : Audio Coding 3
Расширение режима : CM (complete main)
Параметр Endianness формата : Big
Идентификатор кодека : A_AC3
Продолжительность : 47 м.
Вид битрейта : Постоянный
Битрейт : 384 Кбит/сек
Каналы : 6 каналов
Расположение каналов : Front: L C R, Side: L R, LFE
Частота : 48,0 КГц
Битовая глубина : 16 бит
Метод сжатия : С потерями
Размер потока : 132 Мбайт (8%)
Заголовок : To4ka
Язык : Russian

Аудио #2
Идентификатор : 3
Формат : AC-3
Формат/Информация : Audio Coding 3
Расширение режима : CM (complete main)
Параметр Endianness формата : Big
Идентификатор кодека : A_AC3
Продолжительность : 47 м.
Вид битрейта : Постоянный
Битрейт : 384 Кбит/сек
Каналы : 6 каналов
Расположение каналов : Front: L C R, Side: L R, LFE
Частота : 48,0 КГц
Битовая глубина : 16 бит
Метод сжатия : С потерями
Размер потока : 132 Мбайт (8%)
Язык : English
Default : Нет
Forced : Нет

Текст #1
Идентификатор : 4
Формат : UTF-8
Идентификатор кодека : S_TEXT/UTF8
Идентификатор кодека/Информация : UTF-8 Plain Text
Заголовок : To4ka
Язык : Russian

Текст #2
Идентификатор : 5
Формат : UTF-8
Идентификатор кодека : S_TEXT/UTF8
Идентификатор кодека/Информация : UTF-8 Plain Text
Язык : English
Не забывайте говорить Спасибо. Не уходите с раздачи!   
Торрент: Зарегистрирован [13 авг 2014, 07:55]
Статус:
Проверен
 
.torrent скачан: 0 раз
Хэш: 226bf88ff35dd53bc968ffa3670a27e8dcc5c947
Размер: 23.63 ГБ (25 368 112 380 байт)
   Стать Автором раздачи
   
Ничто так не успокаивает, как инструктаж по технике безопасности.
Цитата

Вернуться в Форс-мажоры / Suits

Кто сейчас на конференции

Сейчас эту тему просматривают: нет зарегистрированных пользователей и гости: 1