Американский вандал / American Vandal [S01] (2017) HDTVRip от Kerob | L2

 Статистика раздачи 
Размер: 2.34 ГБ   |  Зарегистрирован: 23 сен 2017, 19:37   |   .torrent скачан: 7 раз
Сидеров: 0  [ 0 байт/сек ]     Личеров: 0  [ 0 байт/сек ]  
  
Аватара пользователя
Главный редактор
Главный редактор
 
Раздал: 90.01 ТБ
Скачал: 3.78 ТБ
Ратио: 24.248
Сообщения: 289042
Стаж: 9 лет 5 месяцев 14 дней
Откуда: Санкт-Петербург

Информация о фильме
Название: Американский вандал
Оригинальное название: American Vandal
Год выхода: 2017
Жанр: комедия, детектив
Режиссер: Тони Ясенда
В ролях: Тайлер Альварес, Гриффин Глюк, Джимми Татро, Камилль Хайд, Эдуардо Франко, Camille Ramsey, Кэлам Уорси, Lou Wilson, Джессика Хуарес, Джо Фаррелл

О фильме:
Вся школа в шоке: кто-то нарисовал гигантские члены на 27 автомобилях на местной парковке. Главный подозреваемый — местный хулиган, помешанный на рисовании пенисов. Однако правда ли это он, или его пытаются подставить?


Страна: США
Продолжительность: ~00:35:00
Перевод: Любительский двухголосый [Kerob]

Файл
Кодек: FMP4
Качество: HDTVRip
Видео: 720х400; 1061 Kbps; 100.000 fps
Звук: MP3; 2 channels; 128 Kbps; 48.0 KHz


General
Complete name : /home/roma/Відео/American.Vandal.s01.400p.HDTV/1.avi
Format : AVI
Format/Info : Audio Video Interleave
File size : 315 MiB
Duration : 36mn 11s
Overall bit rate : 1 216 Kbps
Writing application : Lavf57.40.101

Video
ID : 1
Format : MPEG-4 Visual
Format settings, BVOP : No
Format settings, QPel : No
Format settings, GMC : No warppoints
Format settings, Matrix : Default (H.263)
Codec ID : FMP4
Duration : 36mn 11s
Bit rate : 1 061 Kbps
Width : 720 pixels
Height : 400 pixels
Display aspect ratio : 16:9
Frame rate : 100.000 fps
Color space : YUV
Chroma subsampling : 4:2:0
Bit depth : 8 bits
Scan type : Progressive
Compression mode : Lossy
Bits/(Pixel*Frame) : 0.037
Stream size : 275 MiB (87%)
Writing library : Lavc57.48.101

Audio
ID : 0
Format : MPEG Audio
Format version : Version 1
Format profile : Layer 3
Mode : Joint stereo
Mode extension : MS Stereo
Codec ID : 55
Codec ID/Hint : MP3
Duration : 36mn 11s
Bit rate mode : Constant
Bit rate : 128 Kbps
Channel(s) : 2 channels
Sampling rate : 48.0 KHz
Compression mode : Lossy
Stream size : 33.1 MiB (11%)
Alignment : Aligned on interleaves
Interleave, duration : 10 ms (1.00 video frame)
Не забывайте говорить Спасибо. Не уходите с раздачи!   
Торрент: Зарегистрирован [23 сен 2017, 19:37]
Статус:
Проверен
 
.torrent скачан: 7 раз
Хэш: 1dc04a153c7997b350972e09ea61d86eee221b71
Размер: 2.34 ГБ (2 509 269 524 байт)
   Стать Автором раздачи
   
Цитата

Вернуться в Американский вандал / American Vandal

Кто сейчас на конференции

Сейчас эту тему просматривают: нет зарегистрированных пользователей и гости: 1