Власть в ночном городе / Power [S05] (2018) WEBRip 1080p | GreenРай Studio

 Статистика раздачи 
Размер: 23.97 ГБ   |  Зарегистрирован: 12 сен 2018, 21:18   |   .torrent скачан: 44 раз
Сидеров: 8  [ 0 байт/сек ]     Личеров: 2  [ 0 байт/сек ]  
  
Аватара пользователя
 
Раздал: 256.39 ГБ
Скачал: 432.89 ГБ
Ратио: 0.672
Сообщения: 193024
Стаж: 8 лет 1 месяц 6 дней

Информация о фильме
Год выхода: 2018
Наименование: Власть в ночном городе
Оригинальное наименование: Power
Страна: США
Жанр: драма, криминал
Режиссер постановщик: Сэнфорд Букставер, Майкл Дж. Бассетт, Роб Харди
В главных ролях: Лела Лорен, Омари Хардвик, Нэтари Наутон, Джозеф Сикора, Шэйн Джонсон, Фифти Сент, Ротими, Дж.Р. Рамирез, Майкл Рейни мл., Джерри Феррара

О фильме: Богатый владелец ночного клуба в Нью-Йорке хочет выбиться в городскую элиту и ведет двойную жизнь, торгуя наркотиками.



Файл
Качество: WEBRip 1080p
Видео данные: MKV, 1920x1080 (16:9), 23.976 fps, 5029 Кбит/с
Аудио данные: AC3, 2 ch, 192 Кбит/с
Перевод: Любительский многоголосый (GreenРай Studio)
Продолжительность: 10 x 00:56:00

General
Unique ID : 239758586972356880950153017372493544716 (0xB45FD2FF41A28697964C82D10B08FD0C)
Complete name : D:ГРИНРАЙPower.S05.WEBRip.1080pPower.S05E01.WEBRip.1080p.mkv
Format : Matroska
Format version : Version 4 / Version 2
File size : 2.11 GiB
Duration : 56 min 44 s
Overall bit rate : 5 327 kb/s
Encoded date : UTC 2018-07-03 04:38:28
Writing application : mkvmerge v6.5.0 ('Isn't she lovely') built on Oct 20 2013 12:50:05
Writing library : libebml v1.3.0 + libmatroska v1.4.1

Video
ID : 1
Format : AVC
Format/Info : Advanced Video Codec
Format profile : High@L3.1
Format settings : CABAC / 4 Ref Frames
Format settings, CABAC : Yes
Format settings, RefFrames : 4 frames
Codec ID : V_MPEG4/ISO/AVC
Duration : 56 min 44 s
Bit rate : 5 029 kb/s
Width : 1 920 pixels
Height : 1 080 pixels
Display aspect ratio : 16:9
Frame rate mode : Constant
Frame rate : 23.976 (23976/1000) FPS
Color space : YUV
Chroma subsampling : 4:2:0
Bit depth : 8 bits
Scan type : Progressive
Bits/(Pixel*Frame) : 0.101
Stream size : 1.99 GiB (94%)
Writing library : x264 core 146 r2538 121396c
Encoding settings : cabac=1 / ref=1 / deblock=1:0:0 / analyse=0x3:0x113 / me=hex / subme=2 / psy=1 / psy_rd=1.00:0.00 / mixed_ref=0 / me_range=16 / chroma_me=1 / trellis=0 / 8x8dct=1 / cqm=0 / deadzone=21,11 / fast_pskip=1 / chroma_qp_offset=0 / threads=9 / lookahead_threads=3 / sliced_threads=0 / nr=0 / decimate=1 / interlaced=0 / bluray_compat=0 / constrained_intra=0 / bframes=3 / b_pyramid=2 / b_adapt=1 / b_bias=0 / direct=1 / weightb=1 / open_gop=0 / weightp=1 / keyint=250 / keyint_min=23 / scenecut=40 / intra_refresh=0 / rc_lookahead=10 / rc=crf / mbtree=1 / crf=17.0 / qcomp=0.60 / qpmin=0 / qpmax=69 / qpstep=4 / ip_ratio=1.40 / aq=1:1.00
Default : Yes
Forced : No

Audio
ID : 2
Format : AC-3
Format/Info : Audio Coding 3
Codec ID : A_AC3
Duration : 56 min 44 s
Bit rate mode : Constant
Bit rate : 192 kb/s
Channel(s) : 2 channels
Channel positions : Front: L R
Sampling rate : 48.0 kHz
Frame rate : 31.250 FPS (1536 SPF)
Bit depth : 16 bits
Compression mode : Lossy
Stream size : 77.9 MiB (4%)
Service kind : Complete Main
Default : Yes
Forced : No


Внимание, имеется видео и аудио реклама от спонсора показа



Релиз от:
Не забывайте говорить Спасибо. Не уходите с раздачи!   
Торрент: Зарегистрирован [12 сен 2018, 21:18]
Статус:
Проверен
 
.torrent скачан: 44 раз
Хэш: 8bc5afff42e6ac1cf32e21a0f11a63487d44b44a
Размер: 23.97 ГБ (25 736 177 440 байт)
   Стать Автором раздачи
   
Цитата

Вернуться в Власть в ночном городе / Power

Кто сейчас на конференции

Сейчас эту тему просматривают: нет зарегистрированных пользователей и гости: 1