Зверинец / Zoo [S02] (2016) WEB-DL 1080p от TeamHD | Пифагор

 Статистика раздачи 
Размер: 26.28 ГБ   |  Зарегистрирован: 07 сен 2018, 21:48   |   .torrent скачан: 9 раз
Сидеров: 10  [ 0 байт/сек ]     Личеров: 6  [ 0 байт/сек ]  
  
Аватара пользователя
Главный редактор
Главный редактор
Я на сайте
 
Раздал: 86.11 ТБ
Скачал: 3.77 ТБ
Ратио: 23.270
Сообщения: 217953
Стаж: 8 лет 9 месяцев 24 дня
Откуда: Санкт-Петербург

Год выпуска: 2016
Страна: США
Жанр: триллер, драма
Продолжительность: 0:42:00

Перевод: Профессиональный (многоголосый закадровый) Пифагор

Режиссёр: Стивен А. Эделсон, Брэд Андерсон, Майкл Кэтлман

В ролях: Нонсо Анози, Нора Арнезедер, Билли Бёрк, Кристен Коннолли, Джеймс Волк, Тони Бирд, Ник Хванг, Генри Любатти, Карл Ламбли, Кен Олин

Описание: Триллер рассказывает о массовой атаке животных на людей, захлестнувшей всю планету. В центре сюжета – зоолог Джексон Оз, отвергающий общепринятые взгляды. Находясь в экспедиции в Африке, он начинает замечать странное поведение животных. Когда действия зверей становятся продуманными, скоординированными и приобретают свирепый характер, Оз приступает к поиску разгадки странной пандемии. Пока на планете еще остались места, где человек может укрыться от агрессии братьев меньших...



Качество: WEB-DL 1080p (Netflix)
Контейнер: MKV
Видео: MPEG-4 AVC, ~ 6700 kbps avg, 1920x1080, 23.976 fps
Аудио 1: [Русский] 48 kHz, EAC3, 5.1 ch, ~640 kbps avg |Многоголосый закадровый, Пифагор|
Аудио 2: [Английский] 48 kHz, EAC3, 5.1 ch, ~640 kbps avg
Субтитры: Russian (Forced, Full), English (Full)
Реклама: Отсутствует

Релиз TeamHD - BenderBEST
Общее
Уникальный идентификатор : 165776226954087856613538224488189893621 (0x7CB7570758942166EC43BE49046D9BF5)
Полное имя : S:Новая папкаZoo.S02.1080p.NF.WEB-DL.Rus.Eng_THDZoo.S02E01.The.Day.of.the.Beast.1080p.NF.WEB-DL.Rus.Eng_THD.mkv
Формат : Matroska
Версия формата : Version 4 / Version 2
Размер файла : 2,48 Гбайт
Продолжительность : 40 м.
Режим общего битрейта : Переменный
Общий поток : 8751 Кбит/сек
Дата кодирования : UTC 2018-08-08 18:02:44
Программа кодирования : mkvmerge v25.0.0 ('Prog Noir') 64-bit
Библиотека кодирования : libebml v1.3.6 + libmatroska v1.4.9

Видео
Идентификатор : 1
Формат : AVC
Формат/Информация : Advanced Video Codec
Профиль формата : Main@L4
Параметр CABAC формата : Да
Параметр ReFrames формата : 3 кадра
Идентификатор кодека : V_MPEG4/ISO/AVC
Продолжительность : 40 м.
Вид битрейта : Переменный
Битрейт : 7500 Кбит/сек
Максимальный битрейт : 11,2 Мбит/сек
Ширина : 1920 пикселей
Высота : 1080 пикселей
Соотношение сторон : 16:9
Режим частоты кадров : Постоянный
Частота кадров : 23,976 (24000/1001) кадра/сек
Цветовое пространство : YUV
Субдискретизация насыщенности : 4:2:0
Битовая глубина : 8 бит
Тип развёртки : Прогрессивная
Бит/(Пиксели*Кадры) : 0.151
Размер потока : 2,12 Гбайт (85%)
Библиотека кодирования : x264 core 118
Настройки программы : cabac=1 / ref=3 / deblock=1:0:0 / analyse=0x1:0x111 / me=umh / subme=10 / psy=1 / psy_rd=1.00:0.00 / mixed_ref=1 / me_range=24 / chroma_me=1 / trellis=2 / 8x8dct=0 / cqm=0 / deadzone=21,11 / fast_pskip=1 / chroma_qp_offset=-2 / threads=8 / sliced_threads=0 / nr=0 / decimate=1 / interlaced=0 / bluray_compat=0 / constrained_intra=0 / bframes=2 / b_pyramid=0 / b_adapt=2 / b_bias=0 / direct=3 / weightb=1 / open_gop=0 / weightp=2 / keyint=48 / keyint_min=25 / scenecut=0 / intra_refresh=0 / rc_lookahead=0 / rc=2pass / mbtree=1 / bitrate=7500 / ratetol=1.0 / qcomp=0.50 / qpmin=6 / qpmax=51 / qpstep=4 / cplxblur=20.0 / qblur=0.5 / vbv_maxrate=11250 / vbv_bufsize=15000 / nal_hrd=vbr / ip_ratio=1.40 / aq=1:1.00
Default : Да
Forced : Нет

Аудио #1
Идентификатор : 2
Формат : E-AC-3
Формат/Информация : Audio Coding 3
Параметр Endianness формата : Big
Идентификатор кодека : A_EAC3
Продолжительность : 40 м.
Вид битрейта : Постоянный
Битрейт : 640 Кбит/сек
Каналы : 6 каналов
Расположение каналов : Front: L C R, Side: L R, LFE
Частота : 48,0 КГц
Частота кадров : 187,500 кадров/сек (256 spf)
Метод сжатия : С потерями
Размер потока : 186 Мбайт (7%)
Язык : Russian
Default : Да
Forced : Нет

Аудио #2
Идентификатор : 3
Формат : E-AC-3
Формат/Информация : Audio Coding 3
Параметр Endianness формата : Big
Идентификатор кодека : A_EAC3
Продолжительность : 40 м.
Вид битрейта : Постоянный
Битрейт : 640 Кбит/сек
Каналы : 6 каналов
Расположение каналов : Front: L C R, Side: L R, LFE
Частота : 48,0 КГц
Частота кадров : 187,500 кадров/сек (256 spf)
Метод сжатия : С потерями
Размер потока : 186 Мбайт (7%)
Заголовок : English
Язык : English
Default : Нет
Forced : Нет

Текст #1
Идентификатор : 4
Формат : UTF-8
Идентификатор кодека : S_TEXT/UTF8
Идентификатор кодека/Информация : UTF-8 Plain Text
Продолжительность : 31 м.
Битрейт : 1 бит/сек
Count of elements : 5
Размер потока : 357 байт (0%)
Заголовок : Forced
Язык : Russian
Default : Да
Forced : Да

Текст #2
Идентификатор : 5
Формат : UTF-8
Идентификатор кодека : S_TEXT/UTF8
Идентификатор кодека/Информация : UTF-8 Plain Text
Продолжительность : 39 м.
Битрейт : 74 бит/сек
Count of elements : 866
Размер потока : 21,7 Кбайт (0%)
Заголовок : SDH
Язык : English
Default : Нет
Forced : Нет

Текст #3
Идентификатор : 6
Формат : UTF-8
Идентификатор кодека : S_TEXT/UTF8
Идентификатор кодека/Информация : UTF-8 Plain Text
Продолжительность : 39 м.
Битрейт : 112 бит/сек
Count of elements : 651
Размер потока : 32,7 Кбайт (0%)
Язык : Arabic
Default : Нет
Forced : Нет

Текст #4
Идентификатор : 7
Формат : UTF-8
Идентификатор кодека : S_TEXT/UTF8
Идентификатор кодека/Информация : UTF-8 Plain Text
Продолжительность : 39 м.
Битрейт : 60 бит/сек
Count of elements : 502
Размер потока : 17,6 Кбайт (0%)
Язык : Danish
Default : Нет
Forced : Нет

Текст #5
Идентификатор : 8
Формат : UTF-8
Идентификатор кодека : S_TEXT/UTF8
Идентификатор кодека/Информация : UTF-8 Plain Text
Продолжительность : 39 м.
Битрейт : 66 бит/сек
Count of elements : 503
Размер потока : 19,4 Кбайт (0%)
Язык : German
Default : Нет
Forced : Нет

Текст #6
Идентификатор : 9
Формат : UTF-8
Идентификатор кодека : S_TEXT/UTF8
Идентификатор кодека/Информация : UTF-8 Plain Text
Продолжительность : 39 м.
Битрейт : 94 бит/сек
Count of elements : 543
Размер потока : 27,5 Кбайт (0%)
Язык : Greek
Default : Нет
Forced : Нет

Текст #7
Идентификатор : 10
Формат : UTF-8
Идентификатор кодека : S_TEXT/UTF8
Идентификатор кодека/Информация : UTF-8 Plain Text
Продолжительность : 39 м.
Битрейт : 68 бит/сек
Count of elements : 666
Размер потока : 19,9 Кбайт (0%)
Язык : Spanish
Default : Нет
Forced : Нет

Текст #8
Идентификатор : 11
Формат : UTF-8
Идентификатор кодека : S_TEXT/UTF8
Идентификатор кодека/Информация : UTF-8 Plain Text
Продолжительность : 39 м.
Битрейт : 69 бит/сек
Count of elements : 667
Размер потока : 20,3 Кбайт (0%)
Заголовок : European
Язык : Spanish
Default : Нет
Forced : Нет

Текст #9
Идентификатор : 12
Формат : UTF-8
Идентификатор кодека : S_TEXT/UTF8
Идентификатор кодека/Информация : UTF-8 Plain Text
Продолжительность : 39 м.
Битрейт : 58 бит/сек
Count of elements : 476
Размер потока : 17,1 Кбайт (0%)
Язык : Finnish
Default : Нет
Forced : Нет

Текст #10
Идентификатор : 13
Формат : UTF-8
Идентификатор кодека : S_TEXT/UTF8
Идентификатор кодека/Информация : UTF-8 Plain Text
Продолжительность : 39 м.
Битрейт : 64 бит/сек
Count of elements : 484
Размер потока : 18,9 Кбайт (0%)
Язык : French
Default : Нет
Forced : Нет

Текст #11
Идентификатор : 14
Формат : UTF-8
Идентификатор кодека : S_TEXT/UTF8
Идентификатор кодека/Информация : UTF-8 Plain Text
Продолжительность : 39 м.
Битрейт : 73 бит/сек
Count of elements : 504
Размер потока : 21,5 Кбайт (0%)
Язык : Italian
Default : Нет
Forced : Нет

Текст #12
Идентификатор : 15
Формат : UTF-8
Идентификатор кодека : S_TEXT/UTF8
Идентификатор кодека/Информация : UTF-8 Plain Text
Продолжительность : 39 м.
Битрейт : 46 бит/сек
Count of elements : 462
Размер потока : 13,5 Кбайт (0%)
Язык : Japanese
Default : Нет
Forced : Нет

Текст #13
Идентификатор : 16
Формат : UTF-8
Идентификатор кодека : S_TEXT/UTF8
Идентификатор кодека/Информация : UTF-8 Plain Text
Продолжительность : 39 м.
Битрейт : 69 бит/сек
Count of elements : 505
Размер потока : 20,2 Кбайт (0%)
Язык : Korean
Default : Нет
Forced : Нет

Текст #14
Идентификатор : 17
Формат : UTF-8
Идентификатор кодека : S_TEXT/UTF8
Идентификатор кодека/Информация : UTF-8 Plain Text
Продолжительность : 39 м.
Битрейт : 55 бит/сек
Count of elements : 411
Размер потока : 16,3 Кбайт (0%)
Язык : Norwegian Bokmal
Default : Нет
Forced : Нет

Текст #15
Идентификатор : 18
Формат : UTF-8
Идентификатор кодека : S_TEXT/UTF8
Идентификатор кодека/Информация : UTF-8 Plain Text
Продолжительность : 39 м.
Битрейт : 60 бит/сек
Count of elements : 470
Размер потока : 17,5 Кбайт (0%)
Язык : Dutch
Default : Нет
Forced : Нет

Текст #16
Идентификатор : 19
Формат : UTF-8
Идентификатор кодека : S_TEXT/UTF8
Идентификатор кодека/Информация : UTF-8 Plain Text
Продолжительность : 39 м.
Битрейт : 41 бит/сек
Count of elements : 472
Размер потока : 12,0 Кбайт (0%)
Язык : Polish
Default : Нет
Forced : Нет

Текст #17
Идентификатор : 20
Формат : UTF-8
Идентификатор кодека : S_TEXT/UTF8
Идентификатор кодека/Информация : UTF-8 Plain Text
Продолжительность : 39 м.
Битрейт : 63 бит/сек
Count of elements : 502
Размер потока : 18,6 Кбайт (0%)
Язык : Portuguese
Default : Нет
Forced : Нет

Текст #18
Идентификатор : 21
Формат : UTF-8
Идентификатор кодека : S_TEXT/UTF8
Идентификатор кодека/Информация : UTF-8 Plain Text
Продолжительность : 39 м.
Битрейт : 69 бит/сек
Count of elements : 656
Размер потока : 20,2 Кбайт (0%)
Заголовок : Brazilian
Язык : Portuguese
Default : Нет
Forced : Нет

Текст #19
Идентификатор : 22
Формат : UTF-8
Идентификатор кодека : S_TEXT/UTF8
Идентификатор кодека/Информация : UTF-8 Plain Text
Продолжительность : 39 м.
Битрейт : 108 бит/сек
Count of elements : 506
Размер потока : 31,5 Кбайт (0%)
Язык : Russian
Default : Нет
Forced : Нет

Текст #20
Идентификатор : 23
Формат : UTF-8
Идентификатор кодека : S_TEXT/UTF8
Идентификатор кодека/Информация : UTF-8 Plain Text
Продолжительность : 39 м.
Битрейт : 63 бит/сек
Count of elements : 503
Размер потока : 18,6 Кбайт (0%)
Язык : Swedish
Default : Нет
Forced : Нет

Текст #21
Идентификатор : 24
Формат : UTF-8
Идентификатор кодека : S_TEXT/UTF8
Идентификатор кодека/Информация : UTF-8 Plain Text
Продолжительность : 39 м.
Битрейт : 66 бит/сек
Count of elements : 504
Размер потока : 19,3 Кбайт (0%)
Язык : Turkish
Default : Нет
Forced : Нет

Текст #22
Идентификатор : 25
Формат : UTF-8
Идентификатор кодека : S_TEXT/UTF8
Идентификатор кодека/Информация : UTF-8 Plain Text
Продолжительность : 39 м.
Битрейт : 58 бит/сек
Count of elements : 670
Размер потока : 17,0 Кбайт (0%)
Заголовок : Simplified
Язык : Chinese
Default : Нет
Forced : Нет

Текст #23
Идентификатор : 26
Формат : UTF-8
Идентификатор кодека : S_TEXT/UTF8
Идентификатор кодека/Информация : UTF-8 Plain Text
Продолжительность : 39 м.
Битрейт : 62 бит/сек
Count of elements : 671
Размер потока : 18,1 Кбайт (0%)
Заголовок : Traditional
Язык : Chinese
Default : Нет
Forced : Нет

Не забывайте говорить Спасибо. Не уходите с раздачи!   
Торрент: Зарегистрирован [07 сен 2018, 21:48]
Статус:
Проверен
 
.torrent скачан: 9 раз
Хэш: 85735d6dcd624c6af3720c2b7702a6063b5cdf61
Размер: 26.28 ГБ (28 219 354 585 байт)
   Стать Автором раздачи
   
Цитата
  • Похожие торренты
    Ответы
    Просмотры
    Последнее сообщение

Вернуться в Зверинец / Zoo

Кто сейчас на конференции

Сейчас эту тему просматривают: нет зарегистрированных пользователей и гости: 1