Зверинец / Zoo [S01] (2015) WEB-DL 1080p от TeamHD | Пифагор

 Статистика раздачи 
Размер: 32.44 ГБ   |  Зарегистрирован: 07 сен 2018, 21:47   |   .torrent скачан: 0 раз
Сидеров: 11  [ 0 байт/сек ]     Личеров: 7  [ 0 байт/сек ]  
  
Аватара пользователя
Главный редактор
Главный редактор
 
Раздал: 86.58 ТБ
Скачал: 3.77 ТБ
Ратио: 23.396
Сообщения: 218165
Стаж: 8 лет 9 месяцев 27 дней
Откуда: Санкт-Петербург

Год выпуска: 2015
Страна: США
Жанр: триллер, драма
Продолжительность: 0:42:00

Перевод: Профессиональный (многоголосый закадровый) Пифагор

Режиссёр: Стивен А. Эделсон, Брэд Андерсон, Майкл Кэтлман

В ролях: Нонсо Анози, Нора Арнезедер, Билли Бёрк, Кристен Коннолли, Джеймс Волк, Тони Бирд, Ник Хванг, Генри Любатти, Карл Ламбли, Кен Олин

Описание: Триллер рассказывает о массовой атаке животных на людей, захлестнувшей всю планету. В центре сюжета – зоолог Джексон Оз, отвергающий общепринятые взгляды. Находясь в экспедиции в Африке, он начинает замечать странное поведение животных. Когда действия зверей становятся продуманными, скоординированными и приобретают свирепый характер, Оз приступает к поиску разгадки странной пандемии. Пока на планете еще остались места, где человек может укрыться от агрессии братьев меньших...



Качество: WEB-DL 1080p (Netflix)
Контейнер: MKV
Видео: MPEG-4 AVC, ~ 6700 kbps avg, 1920x1080, 23.976 fps
Аудио 1: [Русский] 48 kHz, EAC3, 5.1 ch, ~640 kbps avg |Многоголосый закадровый, Пифагор|
Аудио 2: [Английский] 48 kHz, EAC3, 5.1 ch, ~640 kbps avg
Субтитры: Russian (Forced, Full), English (Full)
Реклама: Отсутствует

Релиз TeamHD - BenderBEST
Общее
Уникальный идентификатор : 158140109878030036580639488974485526410 (0x76F8AD63AE9FFD001BE16181E50D178A)
Полное имя : S:Новая папкаZoo.S01.1080p.NF.WEB-DL.Rus.Eng_THDZoo.S01E01.First.Blood.1080p.NF.WEB-DL.Rus.Eng_THD.mkv
Формат : Matroska
Версия формата : Version 4 / Version 2
Размер файла : 2,34 Гбайт
Продолжительность : 41 м.
Режим общего битрейта : Переменный
Общий поток : 8068 Кбит/сек
Дата кодирования : UTC 2018-08-08 17:38:06
Программа кодирования : mkvmerge v25.0.0 ('Prog Noir') 64-bit
Библиотека кодирования : libebml v1.3.6 + libmatroska v1.4.9

Видео
Идентификатор : 1
Формат : AVC
Формат/Информация : Advanced Video Codec
Профиль формата : Main@L4
Параметр CABAC формата : Да
Параметр ReFrames формата : 3 кадра
Идентификатор кодека : V_MPEG4/ISO/AVC
Продолжительность : 41 м.
Вид битрейта : Переменный
Битрейт : 6810 Кбит/сек
Максимальный битрейт : 10,2 Мбит/сек
Ширина : 1920 пикселей
Высота : 1080 пикселей
Соотношение сторон : 16:9
Режим частоты кадров : Постоянный
Частота кадров : 23,976 (24000/1001) кадра/сек
Цветовое пространство : YUV
Субдискретизация насыщенности : 4:2:0
Битовая глубина : 8 бит
Тип развёртки : Прогрессивная
Бит/(Пиксели*Кадры) : 0.137
Размер потока : 1,96 Гбайт (84%)
Библиотека кодирования : x264 core 118
Настройки программы : cabac=1 / ref=3 / deblock=1:0:0 / analyse=0x1:0x111 / me=umh / subme=10 / psy=1 / psy_rd=1.00:0.00 / mixed_ref=1 / me_range=24 / chroma_me=1 / trellis=2 / 8x8dct=0 / cqm=0 / deadzone=21,11 / fast_pskip=1 / chroma_qp_offset=-2 / threads=8 / sliced_threads=0 / nr=0 / decimate=1 / interlaced=0 / bluray_compat=0 / constrained_intra=0 / bframes=2 / b_pyramid=0 / b_adapt=2 / b_bias=0 / direct=3 / weightb=1 / open_gop=0 / weightp=2 / keyint=48 / keyint_min=25 / scenecut=0 / intra_refresh=0 / rc_lookahead=0 / rc=2pass / mbtree=1 / bitrate=6810 / ratetol=1.0 / qcomp=0.50 / qpmin=6 / qpmax=51 / qpstep=4 / cplxblur=20.0 / qblur=0.5 / vbv_maxrate=10215 / vbv_bufsize=13620 / nal_hrd=vbr / ip_ratio=1.40 / aq=1:1.00
Default : Да
Forced : Нет

Аудио #1
Идентификатор : 2
Формат : E-AC-3
Формат/Информация : Audio Coding 3
Параметр Endianness формата : Big
Идентификатор кодека : A_EAC3
Продолжительность : 41 м.
Вид битрейта : Постоянный
Битрейт : 640 Кбит/сек
Каналы : 6 каналов
Расположение каналов : Front: L C R, Side: L R, LFE
Частота : 48,0 КГц
Частота кадров : 187,500 кадров/сек (256 spf)
Метод сжатия : С потерями
Размер потока : 190 Мбайт (8%)
Язык : Russian
Default : Да
Forced : Нет

Аудио #2
Идентификатор : 3
Формат : E-AC-3
Формат/Информация : Audio Coding 3
Параметр Endianness формата : Big
Идентификатор кодека : A_EAC3
Продолжительность : 41 м.
Вид битрейта : Постоянный
Битрейт : 640 Кбит/сек
Каналы : 6 каналов
Расположение каналов : Front: L C R, Side: L R, LFE
Частота : 48,0 КГц
Частота кадров : 187,500 кадров/сек (256 spf)
Метод сжатия : С потерями
Размер потока : 190 Мбайт (8%)
Заголовок : English
Язык : English
Default : Нет
Forced : Нет

Текст #1
Идентификатор : 4
Формат : UTF-8
Идентификатор кодека : S_TEXT/UTF8
Идентификатор кодека/Информация : UTF-8 Plain Text
Продолжительность : 40 м.
Битрейт : 79 бит/сек
Count of elements : 776
Размер потока : 23,7 Кбайт (0%)
Заголовок : SDH
Язык : English
Default : Да
Forced : Нет

Текст #2
Идентификатор : 5
Формат : UTF-8
Идентификатор кодека : S_TEXT/UTF8
Идентификатор кодека/Информация : UTF-8 Plain Text
Продолжительность : 40 м.
Битрейт : 121 бит/сек
Count of elements : 580
Размер потока : 35,9 Кбайт (0%)
Язык : Arabic
Default : Нет
Forced : Нет

Текст #3
Идентификатор : 6
Формат : UTF-8
Идентификатор кодека : S_TEXT/UTF8
Идентификатор кодека/Информация : UTF-8 Plain Text
Продолжительность : 40 м.
Битрейт : 55 бит/сек
Count of elements : 560
Размер потока : 16,4 Кбайт (0%)
Язык : Danish
Default : Нет
Forced : Нет

Текст #4
Идентификатор : 7
Формат : UTF-8
Идентификатор кодека : S_TEXT/UTF8
Идентификатор кодека/Информация : UTF-8 Plain Text
Продолжительность : 40 м.
Битрейт : 73 бит/сек
Count of elements : 577
Размер потока : 21,7 Кбайт (0%)
Язык : German
Default : Нет
Forced : Нет

Текст #5
Идентификатор : 8
Формат : UTF-8
Идентификатор кодека : S_TEXT/UTF8
Идентификатор кодека/Информация : UTF-8 Plain Text
Продолжительность : 40 м.
Битрейт : 108 бит/сек
Count of elements : 626
Размер потока : 32,2 Кбайт (0%)
Язык : Greek
Default : Нет
Forced : Нет

Текст #6
Идентификатор : 9
Формат : UTF-8
Идентификатор кодека : S_TEXT/UTF8
Идентификатор кодека/Информация : UTF-8 Plain Text
Продолжительность : 40 м.
Битрейт : 75 бит/сек
Count of elements : 545
Размер потока : 22,3 Кбайт (0%)
Язык : Spanish
Default : Нет
Forced : Нет

Текст #7
Идентификатор : 10
Формат : UTF-8
Идентификатор кодека : S_TEXT/UTF8
Идентификатор кодека/Информация : UTF-8 Plain Text
Продолжительность : 40 м.
Битрейт : 73 бит/сек
Count of elements : 584
Размер потока : 21,6 Кбайт (0%)
Заголовок : European
Язык : Spanish
Default : Нет
Forced : Нет

Текст #8
Идентификатор : 11
Формат : UTF-8
Идентификатор кодека : S_TEXT/UTF8
Идентификатор кодека/Информация : UTF-8 Plain Text
Продолжительность : 40 м.
Битрейт : 66 бит/сек
Count of elements : 436
Размер потока : 19,6 Кбайт (0%)
Язык : Finnish
Default : Нет
Forced : Нет

Текст #9
Идентификатор : 12
Формат : UTF-8
Идентификатор кодека : S_TEXT/UTF8
Идентификатор кодека/Информация : UTF-8 Plain Text
Продолжительность : 40 м.
Битрейт : 69 бит/сек
Count of elements : 535
Размер потока : 20,4 Кбайт (0%)
Язык : French
Default : Нет
Forced : Нет

Текст #10
Идентификатор : 13
Формат : UTF-8
Идентификатор кодека : S_TEXT/UTF8
Идентификатор кодека/Информация : UTF-8 Plain Text
Продолжительность : 40 м.
Битрейт : 77 бит/сек
Count of elements : 576
Размер потока : 22,7 Кбайт (0%)
Язык : Italian
Default : Нет
Forced : Нет

Текст #11
Идентификатор : 14
Формат : UTF-8
Идентификатор кодека : S_TEXT/UTF8
Идентификатор кодека/Информация : UTF-8 Plain Text
Продолжительность : 40 м.
Битрейт : 56 бит/сек
Count of elements : 512
Размер потока : 16,7 Кбайт (0%)
Язык : Japanese
Default : Нет
Forced : Нет

Текст #12
Идентификатор : 15
Формат : UTF-8
Идентификатор кодека : S_TEXT/UTF8
Идентификатор кодека/Информация : UTF-8 Plain Text
Продолжительность : 40 м.
Битрейт : 78 бит/сек
Count of elements : 579
Размер потока : 23,1 Кбайт (0%)
Язык : Korean
Default : Нет
Forced : Нет

Текст #13
Идентификатор : 16
Формат : UTF-8
Идентификатор кодека : S_TEXT/UTF8
Идентификатор кодека/Информация : UTF-8 Plain Text
Продолжительность : 40 м.
Битрейт : 66 бит/сек
Count of elements : 554
Размер потока : 19,5 Кбайт (0%)
Язык : Norwegian Bokmal
Default : Нет
Forced : Нет

Текст #14
Идентификатор : 17
Формат : UTF-8
Идентификатор кодека : S_TEXT/UTF8
Идентификатор кодека/Информация : UTF-8 Plain Text
Продолжительность : 40 м.
Битрейт : 76 бит/сек
Count of elements : 556
Размер потока : 22,4 Кбайт (0%)
Язык : Dutch
Default : Нет
Forced : Нет

Текст #15
Идентификатор : 18
Формат : UTF-8
Идентификатор кодека : S_TEXT/UTF8
Идентификатор кодека/Информация : UTF-8 Plain Text
Продолжительность : 40 м.
Битрейт : 45 бит/сек
Count of elements : 394
Размер потока : 13,4 Кбайт (0%)
Язык : Polish
Default : Нет
Forced : Нет

Текст #16
Идентификатор : 19
Формат : UTF-8
Идентификатор кодека : S_TEXT/UTF8
Идентификатор кодека/Информация : UTF-8 Plain Text
Продолжительность : 40 м.
Битрейт : 75 бит/сек
Count of elements : 560
Размер потока : 22,0 Кбайт (0%)
Язык : Portuguese
Default : Нет
Forced : Нет

Текст #17
Идентификатор : 20
Формат : UTF-8
Идентификатор кодека : S_TEXT/UTF8
Идентификатор кодека/Информация : UTF-8 Plain Text
Продолжительность : 40 м.
Битрейт : 69 бит/сек
Count of elements : 529
Размер потока : 20,5 Кбайт (0%)
Заголовок : Brazilian
Язык : Portuguese
Default : Нет
Forced : Нет

Текст #18
Идентификатор : 21
Формат : UTF-8
Идентификатор кодека : S_TEXT/UTF8
Идентификатор кодека/Информация : UTF-8 Plain Text
Продолжительность : 40 м.
Битрейт : 119 бит/сек
Count of elements : 585
Размер потока : 35,4 Кбайт (0%)
Язык : Russian
Default : Нет
Forced : Нет

Текст #19
Идентификатор : 22
Формат : UTF-8
Идентификатор кодека : S_TEXT/UTF8
Идентификатор кодека/Информация : UTF-8 Plain Text
Продолжительность : 40 м.
Битрейт : 72 бит/сек
Count of elements : 578
Размер потока : 21,1 Кбайт (0%)
Язык : Swedish
Default : Нет
Forced : Нет

Текст #20
Идентификатор : 23
Формат : UTF-8
Идентификатор кодека : S_TEXT/UTF8
Идентификатор кодека/Информация : UTF-8 Plain Text
Продолжительность : 40 м.
Битрейт : 69 бит/сек
Count of elements : 608
Размер потока : 20,6 Кбайт (0%)
Язык : Turkish
Default : Нет
Forced : Нет

Текст #21
Идентификатор : 24
Формат : UTF-8
Идентификатор кодека : S_TEXT/UTF8
Идентификатор кодека/Информация : UTF-8 Plain Text
Продолжительность : 40 м.
Битрейт : 63 бит/сек
Count of elements : 579
Размер потока : 18,7 Кбайт (0%)
Заголовок : Simplified
Язык : Chinese
Default : Нет
Forced : Нет

Текст #22
Идентификатор : 25
Формат : UTF-8
Идентификатор кодека : S_TEXT/UTF8
Идентификатор кодека/Информация : UTF-8 Plain Text
Продолжительность : 40 м.
Битрейт : 64 бит/сек
Count of elements : 579
Размер потока : 19,0 Кбайт (0%)
Заголовок : Traditional
Язык : Chinese
Default : Нет
Forced : Нет

Не забывайте говорить Спасибо. Не уходите с раздачи!   
Торрент: Зарегистрирован [07 сен 2018, 21:47]
Статус:
Проверен
 
.torrent скачан: 0 раз
Хэш: d29456135edaef0a5a87c8a2d984544ba8d2b813
Размер: 32.44 ГБ (34 837 540 916 байт)
   Стать Автором раздачи
   
Цитата
  • Похожие торренты
    Ответы
    Просмотры
    Последнее сообщение

Вернуться в Зверинец / Zoo

Кто сейчас на конференции

Сейчас эту тему просматривают: нет зарегистрированных пользователей и гости: 1