Ранчо / The Ranch [S01] (2016) WEBRip 720р | Sunshine Studio

 Статистика раздачи 
Размер: 6.58 ГБ   |  Зарегистрирован: 03 апр 2016, 19:52   |   .torrent скачан: 0 раз
Сидеров: 1  [ 0 байт/сек ]     Личеров: 0  [ 0 байт/сек ]  
  
Аватара пользователя
Главный редактор
Главный редактор
 
Раздал: 90.01 ТБ
Скачал: 3.78 ТБ
Ратио: 24.248
Сообщения: 281990
Стаж: 9 лет 2 месяца 24 дня
Откуда: Санкт-Петербург

Название: Ранчо
Оригинальное название: The Ranch
Год выхода: 2016
Жанр: комедия
Режиссер: Джим Паттерсон, Дон Рио

В ролях: Эштон Кутчер, Дэнни Мастерсон, Сэм Эллиотт, Дебра Уингер, Грэйди Ли Ричмонд, Келли Госс, Мегин Прайс и др.

О сериале: Сериал расскажет о ранчо в Колорадо, куда после своей яркой, но короткой карьеры возвращается главный герой, чтобы начать семейный бизнес со своим родным братом.

Страна: США
Продолжительность: ~ 00:35:00
Перевод: Любительский (двухголосый) Sunshine Studio
Субтитры: Отсутствуют
Реклама: Присутствует



Файл
Формат: MKV
Качество: WEBRip 720р

Видео: MPEG-4 AVC, 3222 Кбит/с, 1280x720
Аудио: 48 kHz, AC3 Dolby Digital, 2/0 (L,R) ch, ~192 kbps



Формат : Matroska
Версия формата : Version 4 / Version 2
Размер файла : 726 Мбайт
Продолжительность : 29 м.
Общий поток : 3484 Кбит/сек
Дата кодирования : UTC 2016-04-02 01:28:41
Программа кодирования : mkvmerge v6.1.0 ('Old Devil') built on Mar 4 2013 09:10:42
Библиотека кодирования : libebml v1.3.0 + libmatroska v1.4.0

Видео
Идентификатор : 1
Формат : AVC
Формат/Информация : Advanced Video Codec
Профиль формата : High@L3.1
Параметр CABAC формата : Да
Параметр ReFrames формата : 4 кадра
Идентификатор кодека : V_MPEG4/ISO/AVC
Продолжительность : 29 м.
Битрейт : 3222 Кбит/сек
Ширина : 1280 пикселей
Высота : 720 пикселей
Соотношение сторон : 16:9
Режим частоты кадров : Постоянный
Частота кадров : 23,976 (24000/1001) кадра/сек
Частота кадров в оригинале : 23,976 (23976/1000) кадра/сек
Цветовое пространство : YUV
Субдискретизация насыщенности : 4:2:0
Битовая глубина : 8 бит
Тип развёртки : Прогрессивная
Бит/(Пиксели*Кадры) : 0.146
Размер потока : 672 Мбайт (92%)
Библиотека кодирования : x264 core 130 r2273 b3065e6
Настройки программы : cabac=1 / ref=1 / deblock=1:0:0 / analyse=0x3:0x113 / me=hex / subme=2 / psy=1 / psy_rd=1.00:0.10 / mixed_ref=0 / me_range=16 / chroma_me=1 / trellis=0 / 8x8dct=1 / cqm=0 / deadzone=21,11 / fast_pskip=1 / chroma_qp_offset=0 / threads=6 / lookahead_threads=2 / sliced_threads=0 / nr=0 / decimate=1 / interlaced=0 / bluray_compat=0 / constrained_intra=0 / bframes=3 / b_pyramid=2 / b_adapt=1 / b_bias=0 / direct=1 / weightb=1 / open_gop=0 / weightp=1 / keyint=250 / keyint_min=23 / scenecut=40 / intra_refresh=0 / rc_lookahead=10 / rc=crf / mbtree=1 / crf=17.0 / qcomp=0.60 / qpmin=0 / qpmax=69 / qpstep=4 / ip_ratio=1.40 / aq=1:1.00
Default : Да
Forced : Нет

Аудио
Идентификатор : 2
Формат : AC-3
Формат/Информация : Audio Coding 3
Расширение режима : CM (complete main)
Параметр Endianness формата : Big
Идентификатор кодека : A_AC3
Продолжительность : 29 м.
Вид битрейта : Постоянный
Битрейт : 192 Кбит/сек
Каналы : 2 канала
Расположение каналов : Front: L R
Частота : 48,0 КГц
Частота кадров : 31,250 кадров/сек (1536 spf)
Метод сжатия : С потерями
Размер потока : 40,0 Мбайт (6%)
Default : Да
Forced : Нет
Не забывайте говорить Спасибо. Не уходите с раздачи!   
Торрент: Зарегистрирован [03 апр 2016, 19:52]
Статус:
Проверен
 
.torrent скачан: 0 раз
Хэш: df8d67c9dfb9217548a2c9e3a407988c9795006d
Размер: 6.58 ГБ (7 060 738 737 байт)
   Стать Автором раздачи
   
Цитата

Вернуться в Ранчо / The Ranch

Кто сейчас на конференции

Сейчас эту тему просматривают: нет зарегистрированных пользователей и гости: 1