Пространство / The Expanse [03x01-02 из 13] (2018) WEB-DL 1080p | KANSAI

 Статистика раздачи 
Размер: 4.23 ГБ   |  Зарегистрирован: 29 май 2018, 18:08   |   .torrent скачан: 0 раз
Сидеров: 0  [ 0 байт/сек ]     Личеров: 0  [ 0 байт/сек ]  
  
Аватара пользователя
 
Раздал: 1.93 ТБ
Скачал: 50.19 ГБ
Ратио: 39.417
Сообщения: 187718
Стаж: 2 года 8 месяцев 23 дня

Информация о фильме
Название: Пространство
Оригинальное название: The Expanse
Год выпуска: 2018
Страна: США, Канада
Жанр: фантастика, детектив


Перевод: Любительский [многоголосый] | KANSAI Studio
Продолжительность: ~00:45:00
В ролях: Кэс Анвар, Уэс Чэтэм, Доминик Типпер, Стивен Стрейт, Шоре Агдашлу, Флоренс Ванида Фэйвр, Шон Дойл, Фрэнки Адамс, Томас Джейн, Чад Л. Коулмэн и др.


Описание:
Через двести лет от дня сегодняшнего некий сыщик, привыкший всё доводить до конца при любых обстоятельствах, в рамках расследования дела об исчезновении молодой женщины оказывается на борту звездолета, капитан которого решает помочь детективу в его непростом деле. Величайший заговор в истории человечества гарантируется, как и его непременное раскрытие.

Рейтинг:



Качество: WEB-DL 1080p | The.Expanse.S03.1080p.AMZN.WEB-DL.DDP5.1.H.264-NTG
Формат: MKV
Видео: AVC, 1920x1080 (16:9), ~5900 kbps, 23,976 fps, 0,119 bpp
Аудио №1: русский / AC3 / 2.0 / 48 kHz / 192 kbps
Аудио №2: английский / E-AC3 / 5.1 / 48 kHz / 640 kbps
Реклама: Присутствует звуковая.



General
Unique ID : 177194904746761348394866418202823040656 (0x854E7F4F5865717FAC1486F3C09B1E90)
Complete name : G:_kansaitorThe.Expanse.S03.1080p.WEBDL-KANSAIThe.Expanse.S03E01.Fight.or.Flight.1080p.WEBDL-KANSAI.mkv
Format : Matroska
Format version : Version 4 / Version 2
File size : 2.09 GiB
Duration : 43 min 37 s
Overall bit rate mode : Variable
Overall bit rate : 6 868 kb/s
Encoded date : UTC 2018-05-18 13:02:19
Writing application : mkvmerge v6.7.0 ('Back to the Ground') 64bit built on Jan 8 2014 15:10:52
Writing library : libebml v1.3.0 + libmatroska v1.4.1

Video
ID : 1
Format : AVC
Format/Info : Advanced Video Codec
Format profile : High@L4
Format settings : CABAC / 4 Ref Frames
Format settings, CABAC : Yes
Format settings, RefFrames : 4 frames
Codec ID : V_MPEG4/ISO/AVC
Duration : 43 min 37 s
Bit rate mode : Variable
Bit rate : 5 899 kb/s
Maximum bit rate : 15.0 Mb/s
Width : 1 920 pixels
Height : 1 080 pixels
Display aspect ratio : 16:9
Frame rate mode : Constant
Frame rate : 23.976 (24000/1001) FPS
Color space : YUV
Chroma subsampling : 4:2:0
Bit depth : 8 bits
Scan type : Progressive
Bits/(Pixel*Frame) : 0.119
Stream size : 1.80 GiB (86%)
Default : Yes
Forced : No
Color range : Limited
Color primaries : BT.709
Transfer characteristics : BT.709
Matrix coefficients : BT.709

Audio #1
ID : 2
Format : AC-3
Format/Info : Audio Coding 3
Codec ID : A_AC3
Duration : 43 min 37 s
Bit rate mode : Constant
Bit rate : 192 kb/s
Channel(s) : 2 channels
Channel positions : Front: L R
Sampling rate : 48.0 kHz
Frame rate : 31.250 FPS (1536 SPF)
Bit depth : 16 bits
Compression mode : Lossy
Stream size : 59.9 MiB (3%)
Title : KANSAI Studio
Language : Russian
Service kind : Complete Main
Default : Yes
Forced : No

Audio #2
ID : 3
Format : E-AC-3
Format/Info : Enhanced Audio Coding 3
Codec ID : A_EAC3
Duration : 43 min 37 s
Bit rate mode : Constant
Bit rate : 640 kb/s
Channel(s) : 6 channels
Channel positions : Front: L C R, Side: L R, LFE
Sampling rate : 48.0 kHz
Frame rate : 187.500 FPS (256 SPF)
Compression mode : Lossy
Stream size : 200 MiB (9%)
Language : English
Service kind : Complete Main
Default : No
Forced : No

Text #1
ID : 4
Format : UTF-8
Codec ID : S_TEXT/UTF8
Codec ID/Info : UTF-8 Plain Text
Language : English
Default : No
Forced : No

Text #2
ID : 5
Format : UTF-8
Codec ID : S_TEXT/UTF8
Codec ID/Info : UTF-8 Plain Text
Title : SDH
Language : English
Default : No
Forced : No

Не забывайте говорить Спасибо. Не уходите с раздачи!   
Торрент: Зарегистрирован [29 май 2018, 18:08] Для скачивания .torrent
необходима регистрация
Или скачать с помощью
MediaGet
Статус:
Проверен
 
.torrent скачан: 0 раз
Хэш: 5a04444fcc6f4861b85b6a7992c4c9671b7233b7
Размер: 4.23 ГБ (4 545 483 835 байт)
   Стать Автором раздачи
   
Цитата
  • Похожие торренты
    Ответы
    Просмотры
    Последнее сообщение

Вернуться в Пространство / The Expanse

Кто сейчас на конференции

Сейчас эту тему просматривают: нет зарегистрированных пользователей и гости: 1