Марко Поло / Marco Polo [S01] (2014) BDRip 1080p | LostFilm, AlexFilm, NewStudio, BaibaKo

 Статистика раздачи 
Размер: 51.3 ГБ   |  Зарегистрирован: 06 сен 2016, 12:59   |   .torrent скачан: 39 раз
Сидеров: 12  [ 0 байт/сек ]     Личеров: 9  [ 0 байт/сек ]  
  
Аватара пользователя
Главный редактор
Главный редактор
 
Раздал: 86.61 ТБ
Скачал: 3.77 ТБ
Ратио: 23.405
Сообщения: 218182
Стаж: 8 лет 9 месяцев 28 дней
Откуда: Санкт-Петербург

Марко Поло / Marco Polo

Страна: США
Производство: The Weinstein Company LLC, Electus
Год выпуска: 2014
Сезон: 1
Жанр: драма, приключения, история
Продолжительность: 10х ~00:51:00

Режиссеры: Даниэль Минахан, Дэвид Петрарка, Алик Сахаров
Авторы сценария: Джон Фуско, Ноэль Валдивия, Патрик Макманус

В ролях: Лоренцо Рикельми, Бенедикт Вонг, Джоан Чэнь, Реми Хий, Чжу Чжу, Махеш Джаду, Оливия Ченг, Том Ву, Су-хён

Описание: Сюжет сериала основан на приключениях знаменитого исследователя Марко Поло в Китае в XIII веке...



Перевод: 4х Профессиональный (многоголосый, закадровый)
Субтитры: русские, английские


Качество: BDRip 1080p
Формат: МКV
Видео кодек: AVC
Аудио кодек: АС3
Видео: 1920x960 (2.000), 23.976 fps, MPEG-4 AVC ~11.0 Мbps avg
Аудио №1: 48.0 kHz, AC3 Dolby Digital, 3/2 (L,C,R,l,r) + LFE ch, ~640 kbps | LostFilm
Аудио №2: 48.0 kHz, AC3 Dolby Digital, 3/2 (L,C,R,l,r) + LFE ch, ~384 kbps | AlexFilm
Аудио №3: 48.0 kHz, AC3 Dolby Digital, 3/2 (L,C,R,l,r) + LFE ch, ~384 kbps | NewStudio
Аудио №4: 48.0 kHz, AC3 Dolby Digital, 3/2 (L,C,R,l,r) + LFE ch, ~384 kbps | BaibaKo
Аудио №5: 48.0 kHz, AC3 Dolby Digital, 3/2 (L,C,R,l,r) + LFE ch, ~640 kbps | ENG
Формат субтитров: UTF-8 Plain Text
Главы: да

Дата премьеры (мир): 12 декабря 2014



Релиз от: Grandfather61
General
Unique ID : 173057580766396788245547907970059131946 (0x8231AD7D198D27E5844BCDFC082EDC2A)
Complete name : Marco.Polo.S01E01.1080p.BDRip.4xRus.Eng.Subs.mkv
Format : Matroska
Format version : Version 4 / Version 2
File size : 4.80 GiB
Duration : 51 min
Overall bit rate : 13.4 Mb/s
Encoded date : UTC 2016-08-13 20:04:28
Writing application : mkvmerge v9.3.1 ('Mask Machine') 64bit
Writing library : libebml v1.3.4 + libmatroska v1.4.5

Video
ID : 1
Format : AVC
Format/Info : Advanced Video Codec
Format profile : High@L4.1
Format settings, CABAC : Yes
Format settings, ReFrames : 4 frames
Codec ID : V_MPEG4/ISO/AVC
Duration : 51 min
Bit rate : 11.0 Mb/s
Width : 1 920 pixels
Height : 960 pixels
Display aspect ratio : 2.000
Frame rate mode : Constant
Frame rate : 23.976 (24000/1001) FPS
Color space : YUV
Chroma subsampling : 4:2:0
Bit depth : 8 bits
Scan type : Progressive
Bits/(Pixel*Frame) : 0.249
Stream size : 3.93 GiB (82%)
Writing library : x264 core 146 r2538 121396c
Encoding settings : cabac=1 / ref=4 / deblock=1:-3:-3 / analyse=0x3:0x10 / me=umh / subme=10 / psy=1 / psy_rd=0.90:0.00 / mixed_ref=1 / me_range=48 / chroma_me=1 / trellis=2 / 8x8dct=1 / cqm=0 / deadzone=21,11 / fast_pskip=1 / chroma_qp_offset=-4 / threads=12 / lookahead_threads=4 / sliced_threads=0 / nr=0 / decimate=1 / interlaced=0 / bluray_compat=0 / constrained_intra=0 / bframes=8 / b_pyramid=2 / b_adapt=2 / b_bias=0 / direct=1 / weightb=1 / open_gop=0 / weightp=1 / keyint=250 / keyint_min=23 / scenecut=40 / intra_refresh=0 / rc_lookahead=250 / rc=crf / mbtree=1 / crf=15.7 / qcomp=0.70 / qpmin=0 / qpmax=69 / qpstep=4 / ip_ratio=1.40 / aq=1:1.00
Language : English
Default : Yes
Forced : No
Color range : Limited
Color primaries : BT.709
Transfer characteristics : BT.709
Matrix coefficients : BT.709

Audio #1
ID : 2
Format : AC-3
Format/Info : Audio Coding 3
Mode extension : CM (complete main)
Format settings, Endianness : Big
Codec ID : A_AC3
Duration : 51 min
Bit rate mode : Constant
Bit rate : 640 kb/s
Channel(s) : 6 channels
Channel positions : Front: L C R, Side: L R, LFE
Sampling rate : 48.0 kHz
Frame rate : 31.250 FPS (1536 spf)
Compression mode : Lossy
Stream size : 235 MiB (5%)
Title : LostFilm 5.1
Language : Russian
Default : Yes
Forced : No

Audio #2
ID : 3
Format : AC-3
Format/Info : Audio Coding 3
Mode extension : CM (complete main)
Format settings, Endianness : Big
Codec ID : A_AC3
Duration : 51 min
Bit rate mode : Constant
Bit rate : 384 kb/s
Channel(s) : 6 channels
Channel positions : Front: L C R, Side: L R, LFE
Sampling rate : 48.0 kHz
Frame rate : 31.250 FPS (1536 spf)
Compression mode : Lossy
Stream size : 141 MiB (3%)
Title : AlexFilm 5.1
Language : Russian
Default : No
Forced : No

Audio #3
ID : 4
Format : AC-3
Format/Info : Audio Coding 3
Mode extension : CM (complete main)
Format settings, Endianness : Big
Codec ID : A_AC3
Duration : 51 min
Bit rate mode : Constant
Bit rate : 384 kb/s
Channel(s) : 6 channels
Channel positions : Front: L C R, Side: L R, LFE
Sampling rate : 48.0 kHz
Frame rate : 31.250 FPS (1536 spf)
Compression mode : Lossy
Stream size : 141 MiB (3%)
Title : NewStudio 5.1
Language : Russian
Default : No
Forced : No

Audio #4
ID : 5
Format : AC-3
Format/Info : Audio Coding 3
Mode extension : CM (complete main)
Format settings, Endianness : Big
Codec ID : A_AC3
Duration : 51 min
Bit rate mode : Constant
Bit rate : 384 kb/s
Channel(s) : 6 channels
Channel positions : Front: L C R, Side: L R, LFE
Sampling rate : 48.0 kHz
Frame rate : 31.250 FPS (1536 spf)
Compression mode : Lossy
Stream size : 141 MiB (3%)
Title : BaibaKo 5.1
Language : Russian
Default : No
Forced : No

Audio #5
ID : 6
Format : AC-3
Format/Info : Audio Coding 3
Mode extension : CM (complete main)
Format settings, Endianness : Big
Codec ID : A_AC3
Duration : 51 min
Bit rate mode : Constant
Bit rate : 640 kb/s
Channel(s) : 6 channels
Channel positions : Front: L C R, Side: L R, LFE
Sampling rate : 48.0 kHz
Frame rate : 31.250 FPS (1536 spf)
Compression mode : Lossy
Stream size : 235 MiB (5%)
Title : original 5.1
Language : English
Default : No
Forced : No

Text #1
ID : 7
Format : UTF-8
Codec ID : S_TEXT/UTF8
Codec ID/Info : UTF-8 Plain Text
Duration : 48 min
Bit rate : 69 b/s
Count of elements : 455
Stream size : 24.9 KiB (0%)
Title : rus
Language : Russian
Default : No
Forced : No

Text #2
ID : 8
Format : UTF-8
Codec ID : S_TEXT/UTF8
Codec ID/Info : UTF-8 Plain Text
Duration : 47 min
Bit rate : 47 b/s
Count of elements : 518
Stream size : 16.4 KiB (0%)
Title : CC
Language : English
Default : No
Forced : No

Menu
00:00:00.000 : :Chapter 01
00:03:28.166 : :Chapter 02
00:10:07.982 : :Chapter 03
00:11:42.702 : :Chapter 04
00:15:24.048 : :Chapter 05
00:19:17.698 : :Chapter 06
00:22:56.375 : :Chapter 07
00:27:33.276 : :Chapter 08
00:33:03.231 : :Chapter 09
00:38:06.325 : :Chapter 10
00:43:37.489 : :Chapter 11
00:48:36.788 : :Chapter 12
00:51:14.905 : :Chapter 13

Не забывайте говорить Спасибо. Не уходите с раздачи!   
Торрент: Зарегистрирован [06 сен 2016, 12:59]
Статус:
Проверен
 
.torrent скачан: 39 раз
Хэш: 9d99153a161a3aedbba46d2c6bf87cae330b2bdf
Размер: 51.3 ГБ (55 079 328 322 байт)
   Стать Автором раздачи
   
Цитата

Вернуться в Марко Поло / Marco Polo

Кто сейчас на конференции

Сейчас эту тему просматривают: нет зарегистрированных пользователей и гости: 1