Марко Поло / Marco Polo [S02] (2016) WEBRip от AlexFilm

 Статистика раздачи 
Размер: 6.7 ГБ   |  Зарегистрирован: 11 июл 2016, 17:23   |   .torrent скачан: 286 раз
Сидеров: 9  [ 0 байт/сек ]     Личеров: 2  [ 0 байт/сек ]  
  
Аватара пользователя
Главный редактор
Главный редактор
 
Раздал: 86.58 ТБ
Скачал: 3.77 ТБ
Ратио: 23.396
Сообщения: 218165
Стаж: 8 лет 9 месяцев 27 дней
Откуда: Санкт-Петербург

Информация о фильме
Название: Марко Поло
Оригинальное название: Marco Polo
Год выхода: 2016
Жанр: драма, приключения, история
Режиссер: Алик Сахаров, Дэвид Петрарка, Джон Мэйбери
В ролях: Бенедикт Вонг, Оливия Ченг, Джоан Чэнь, Чжу Чжу, Махеш Джаду, Лоренцо Рикельми, Реми Хий, Том Ву

О фильме:
Сюжет сериала основан на приключениях знаменитого исследователя Марко Поло в Китае в 13-м веке.

Страна: США
Студия: The Weinstein Company LLC, Phosphene, Encore Video, Electus, Pixomondo
Продолжительность: ~00:50:00 серия
Перевод: Профессиональный многоголосый закадровый [AlexFilm]

Файл
Кодек: XviD
Качество: WEBRip
Видео: 720x360, 23.976 fps, ~1400 kbps avg
Аудио 1: MP3, 128 кб/с (2 ch) [Русский]
Аудио 2: MP3, 128 кб/с (2 ch) [Английский]

Семпл

Format : AVI
Format/Info : Audio Video Interleave
File size : 341 MiB
Duration : 28mn 30s
Overall bit rate : 1 673 Kbps
Movie name : Marco Polo 2x00 @ AlexFilm
Writing application : VirtualDubMod 1.5.10.2 (build 2540/release)
Writing library : VirtualDubMod build 2540/release

Video
ID : 0
Format : MPEG-4 Visual
Format profile : Advanced Simple@L5
Format settings, BVOP : No
Format settings, QPel : No
Format settings, GMC : No warppoints
Format settings, Matrix : Default (H.263)
Codec ID : XVID
Codec ID/Hint : XviD
Duration : 28mn 30s
Bit rate : 1 403 Kbps
Width : 720 pixels
Height : 360 pixels
Display aspect ratio : 2.000
Frame rate : 23.976 fps
Color space : YUV
Chroma subsampling : 4:2:0
Bit depth : 8 bits
Scan type : Progressive
Compression mode : Lossy
Bits/(Pixel*Frame) : 0.226
Stream size : 286 MiB (84%)
Writing library : XviD 73

Audio #1
ID : 1
Format : MPEG Audio
Format version : Version 1
Format profile : Layer 3
Mode : Joint stereo
Mode extension : MS Stereo
Codec ID : 55
Codec ID/Hint : MP3
Duration : 28mn 30s
Bit rate mode : Constant
Bit rate : 128 Kbps
Channel(s) : 2 channels
Sampling rate : 48.0 KHz
Compression mode : Lossy
Stream size : 26.1 MiB (8%)
Alignment : Aligned on interleaves
Interleave, duration : 42 ms (1.00 video frame)
Interleave, preload duration : 504 ms
Title : Russian (AlexFilm)

Audio #2
ID : 2
Format : MPEG Audio
Format version : Version 1
Format profile : Layer 3
Mode : Joint stereo
Codec ID : 55
Codec ID/Hint : MP3
Duration : 28mn 30s
Bit rate mode : Constant
Bit rate : 128 Kbps
Channel(s) : 2 channels
Sampling rate : 48.0 KHz
Compression mode : Lossy
Stream size : 26.1 MiB (8%)
Alignment : Aligned on interleaves
Interleave, duration : 42 ms (1.00 video frame)
Interleave, preload duration : 504 ms
Title : English
Writing library : LAME3.90.3



Релиз от: AlexFilm
Не забывайте говорить Спасибо. Не уходите с раздачи!   
Торрент: Зарегистрирован [11 июл 2016, 17:23]
Статус:
Проверен
 
.torrent скачан: 286 раз
Хэш: c109a4c2caec3361fd2eeedf4bbfe7c2f5e4fc8d
Размер: 6.7 ГБ (7 192 133 632 байт)
   Стать Автором раздачи
   
Цитата

Вернуться в Марко Поло / Marco Polo

Кто сейчас на конференции

Сейчас эту тему просматривают: нет зарегистрированных пользователей и гости: 1