Чемпионат Мира 2018 / 1/8 финала / Уругвай - Португалия + Студии / itv1 HD [30.06.2018, Футбол, HDTV/1080i, TS/H.264, EN]

 Статистика раздачи 
Размер: 10.2 ГБ   |  Зарегистрирован: 04 июл 2018, 12:08   |   .torrent скачан: 0 раз
Сидеров: 0  [ 0 байт/сек ]     Личеров: 0  [ 0 байт/сек ]  
  
Аватара пользователя
Главный редактор
Главный редактор
Я на сайте
 
Раздал: 90.01 ТБ
Скачал: 3.78 ТБ
Ратио: 24.248
Сообщения: 281956
Стаж: 9 лет 2 месяца 23 дня
Откуда: Санкт-Петербург

Чемпионат Мира 2018 / 1/8 финала / Уругвай - Португалия + Студии

Год Выпуска: 2018
Вид Спорта: Футбол

Продолжительность: o 00:21:01+00:49:34+00:59:29+00:13:02 o

Комментарий:
Язык Комментария: Английский

Качество: HDTV
Формат: TS
Видео Кодек: AVC
Видео: 1920x1080 (16/9), 25,000fps, ~9 447 kb/s
Аудио #1: AC-3, 192 kb/s, 48 KHz, 2 channels
[*]Аудио #2: MP2, 160 kb/s, 48 KHz, 2 channels
2-1
Код: Выделить всё
[center]Уругвай: Муслера - Касерес, Хименес, Годин, Лаксальт - Торрейра, Нандес, Весино, Бентанкур - Кавани, Суарес.
В запасе остались: Урретавискайя, Сильва, Варела, Санчес, Родригес, де Арраскаэта, Стуани, Кампанья, Сильва, Макси Перейра, Макси Гомес, Коатес.
[/center]Португалия: Руй Патрисиу - Рикарду Перейра, Пепе, Фонте, Геррейру - Бернарду Силва, Адриен Силва, Вильям Карвалью, Жоау Мариу - Гонсалу Гедеш, Роналду.
Запасные: Бруну Алвеш, Фернандеш, Моутинью, Андре Силва, Антони Лопеш, Диаш, Бруну Фернандеш, Желсон Мартинш, Мариу Руй, Куарежма, Соареш, Бету.
Код: Выделить всё
General
ID                          : 1 (0x1)
Complete name               : H:\Чемпионат мира 2018\Чемпионат Мира 2018  18 финала  Уругвай - Португалия + Студии  itv1 HD\20180630-URU-POR-WC18_1.ts
Format                      : MPEG-TS
File size                   : 3.57 GiB
Duration                    : 49 min 34 s
Overall bit rate mode       : Variable
Overall bit rate            : 10.3 Mb/s
Video
ID                          : 2325 (0x915)
Menu ID                     : 1 (0x1)
Format                      : AVC
Format/Info                 : Advanced Video Codec
Format profile              : Main@L4
Format settings             : CABAC / 4 Ref Frames
Format settings, CABAC      : Yes
Format settings, RefFrames  : 4 frames
Codec ID                    : 27
Duration                    : 49 min 34 s
Bit rate                    : 9 447 kb/s
Width                       : 1 920 pixels
Height                      : 1 080 pixels
Display aspect ratio        : 16:9
Frame rate                  : 25.000 FPS
Standard                    : Component
Color space                 : YUV
Chroma subsampling          : 4:2:0
Bit depth                   : 8 bits
Scan type                   : MBAFF
Scan type, store method     : Interleaved fields
Scan order                  : Top Field First
Bits/(Pixel*Frame)          : 0.182
Stream size                 : 3.27 GiB (92%)
Color range                 : Limited
Color primaries             : BT.709
Transfer characteristics    : BT.709
Matrix coefficients         : BT.709
Audio #1
ID                          : 2326 (0x916)
Menu ID                     : 1 (0x1)
Format                      : MPEG Audio
Format version              : Version 1
Format profile              : Layer 2
Format settings             : Joint stereo
Mode                        : Joint stereo
Codec ID                    : 3
Duration                    : 49 min 33 s
Bit rate mode               : Constant
Bit rate                    : 160 kb/s
Channel(s)                  : 2 channels
Sampling rate               : 48.0 kHz
Compression mode            : Lossy
Stream size                 : 56.7 MiB (2%)
Language                    : nar
Audio #2
ID                          : 2327 (0x917)
Menu ID                     : 1 (0x1)
Format                      : AC-3
Format/Info                 : Audio Coding 3
Format settings, Endianness : Big
Codec ID                    : 6
Duration                    : 49 min 33 s
Bit rate mode               : Constant
Bit rate                    : 192 kb/s
Channel(s)                  : 2 channels
Channel positions           : Front: L R
Sampling rate               : 48.0 kHz
Frame rate                  : 31.250 FPS (1536 SPF)
Bit depth                   : 16 bits
Compression mode            : Lossy
Stream size                 : 68.1 MiB (2%)
Language                    : English
Service kind                : Complete Main




Не забывайте говорить Спасибо. Не уходите с раздачи!   
Торрент: Зарегистрирован [04 июл 2018, 12:08]
Статус:
Проверен
 
.torrent скачан: 0 раз
Хэш: f6236e3091f7a99b087d6957a6704ce6263bc5b8
Размер: 10.2 ГБ (10 951 647 284 байт)
   Стать Автором раздачи
   
Цитата
  • Похожие торренты
    Ответы
    Просмотры
    Последнее сообщение

Вернуться в Чемпионат Мира 2018 (плей-офф финального турнира)

Кто сейчас на конференции

Сейчас эту тему просматривают: нет зарегистрированных пользователей и гости: 1