Чемпионат мира 2018 / 1/8 финала / Бразилия - Мексика / Brazil - Mexico [02.07.2018, Футбол, WEB-DL UHD/2160p/4K/HDR/50fps, MKV/H.265/HEVC/50fps, EN]

 Статистика раздачи 
Размер: 21.5 ГБ   |  Зарегистрирован: 04 июл 2018, 11:49   |   .torrent скачан: 0 раз
Сидеров: 2  [ 0 байт/сек ]     Личеров: 0  [ 0 байт/сек ]  
  
Аватара пользователя
Главный редактор
Главный редактор
Я на сайте
 
Раздал: 90.01 ТБ
Скачал: 3.78 ТБ
Ратио: 24.248
Сообщения: 282434
Стаж: 9 лет 2 месяца 30 дней
Откуда: Санкт-Петербург

Чемпионат мира 2018
1/8 финала

Бразилия - Мексика

Вид спорта: Футбол
Дата
: 02.07.2018
Язык комментариев: Английский
Описание: 02 июля 2018 года, понедельник. 17:00 МСК.
Стадион: Самара Арена (Самара, Россия) , вместимость: 44918
Главный судья: Джанлука Рокки (Флоренция, Италия)
Ассистент: Эленито Ди Либераторе (Италия)
Ассистент: Мауро Тонолини (Италия)
Резервный: Матеу Лаос (Валенсия, Испания)
Автор записи: ??
Сэмпл: 00:02:00 (234 Мб)
Качество: WEB-DL 2160p (4K UltraHD, HDR)
Формат видео: MKV
Видео: Н.265/HEVC, 3840х2160, 50,000 fps, ~18.0 Мбит/с
Аудио: AAC, stereo, 48.0 kHz, 128kbps
1 вр [Бразилия] Алисон Бекер
22 зщ [Бразилия] Лемос Консерва Фагнер
6 зщ [Бразилия] Филипе Луис
2 зщ [Бразилия] Тьяго Силва
3 зщ [Бразилия] Жоао Миранда
5 пз [Бразилия] Каземиро
15 пз [Бразилия] Паулиньо
11 пз [Бразилия] Филиппе Коутиньо
19 пз [Бразилия] Виллиан
9 нп [Бразилия] Габриэл Жезус
10 нп [Бразилия] Неймар
13 вр [Мексика] Гильермо Очоа
21 зщ [Мексика] Эдсон Альварес
4 зщ [Мексика] Рафаэль Маркес
2 зщ [Мексика] Уго Айяла
3 зщ [Мексика] Карлос Сальседо
23 пз [Мексика] Хесус Гальярдо
16 пз [Мексика] Эктор Эррера
18 пз [Мексика] Андрес Гуардадо
14 нп [Мексика] Хавьер Эрнандес
11 нп [Мексика] Карлос Вела
22 нп [Мексика] Ирвин Лосано
02:49:56

В формате PNG: https://sendfile.su/1428940
Скрины любезно предоставил: pashka_chem http://rutracker.org/forum/profile.php?mode=viewprofile&u=14525278
Для нормального просмотра видео на ПК необходимо установить madVR.
General
Unique ID : 330235325998743973483268649087309640982 (0xF87102A340D1D36209B0F73FD91EF516)
Complete name : FIFA.World.Cup.2018.Round.of.16.Brazil.Vs.Mexico.2160p.WEBRip.x265.10bit.HDR.AAC2.0_.mkv
Format : Matroska
Format version : Version 4 / Version 2
File size : 21.5 GiB
Duration : 2 h 49 min
Overall bit rate : 18.1 Mb/s
Encoded date : UTC 2018-07-04 12:30:03
Writing application : mkvmerge v24.0.0 ('Beyond The Pale') 64-bit
Writing library : libebml v1.3.6 + libmatroska v1.4.9
Video
ID : 1
Format : HEVC
Format/Info : High Efficiency Video Coding
Commercial name : HDR10
Format profile : Main 10@L5.1@Main
Codec ID : V_MPEGH/ISO/HEVC
Duration : 2 h 49 min
Bit rate : 18.0 Mb/s
Width : 3 840 pixels
Height : 2 160 pixels
Display aspect ratio : 16:9
Frame rate mode : Constant
Frame rate : 50.000 FPS
Color space : YUV
Chroma subsampling : 4:2:0
Bit depth : 10 bits
Bits/(Pixel*Frame) : 0.043
Stream size : 21.3 GiB (99%)
Default : Yes
Forced : No
Color range : Limited
Color primaries : BT.2020
Transfer characteristics : PQ
Matrix coefficients : BT.2020 non-constant
Mastering display color pri : R: x=0.000000 y=0.000000, G: x=0.000000 y=0.000000, B: x=0.000000 y=0.000000, White point: x=0.000000 y=0.000000
Mastering display luminance : min: 0.0000 cd/m2, max: 0 cd/m2
Audio
ID : 2
Format : AAC
Format/Info : Advanced Audio Codec
Format profile : LC
Codec ID : A_AAC-2
Duration : 2 h 49 min
Bit rate : 128 kb/s
Channel(s) : 2 channels
Channel positions : Front: L R
Sampling rate : 48.0 kHz
Frame rate : 46.875 FPS (1024 SPF)
Compression mode : Lossy
Stream size : 156 MiB (1%)
Default : Yes
Forced : No
2:0
Убедительная просьба оставаться на раздаче!!!
Не забывайте говорить Спасибо. Не уходите с раздачи!   
Торрент: Зарегистрирован [04 июл 2018, 11:49]
Статус:
Проверен
 
.torrent скачан: 0 раз
Хэш: 9f5f85a0d3973efda7abc5b1315281ffd697c688
Размер: 21.5 ГБ (23 088 048 180 байт)
   Стать Автором раздачи
   
Цитата
  • Похожие торренты
    Ответы
    Просмотры
    Последнее сообщение

Вернуться в Чемпионат Мира 2018 (плей-офф финального турнира)

Кто сейчас на конференции

Сейчас эту тему просматривают: нет зарегистрированных пользователей и гости: 1