Чемпионат Мира 2018 / 1/8 финала / Франция - Аргентина + Студии / BBC One HD [30.06.2018, Футбол, HDTV/1080i, TS/H.264, EN]

 Статистика раздачи 
Размер: 8.2 ГБ   |  Зарегистрирован: 04 июл 2018, 11:32   |   .torrent скачан: 0 раз
Сидеров: 1  [ 0 байт/сек ]     Личеров: 0  [ 0 байт/сек ]  
  
Аватара пользователя
Главный редактор
Главный редактор
 
Раздал: 90.01 ТБ
Скачал: 3.78 ТБ
Ратио: 24.248
Сообщения: 282526
Стаж: 9 лет 3 месяца 1 день
Откуда: Санкт-Петербург

Чемпионат Мира 2018 / 1/8 финала / Франция - Аргентина + Студии

Год Выпуска: 2018
Вид Спорта: Футбол

Продолжительность: o 00:23:31+00:53:34+01:06:33+00:15:13 o

Комментарий:
Язык Комментария: Английский

Качество: HDTV
Формат: TS
Видео Кодек: AVC
Видео: 1920x1080 (16/9), 25,000fps, ~6 424 kb/s
Аудио #1: AC-3, 384 kb/s, 48 KHz, 6 channels
[*]Аудио #2: MP2, 256 kb/s, 48 KHz, 2 channels
4-3
Код: Выделить всё
[center]Франция: Льорис - Павар, Варан, Умтити, Люка Эрнандес - Погба, Канте, Мбаппе, Гризманн, Матюиди - Жиру.
В запасе остались: Манданда, Рами, Фекир, Сидибе, Товен, Менди, Ареоля, Кимпембе, Лемар, Дембеле, Толиссо, Нзонзи.
[/center]Аргентина: Армани - Меркадо, Отаменди, Рохо, Тальяфико - Перес, Маскерано, Банега - Павон, Месси, Ди Мария.
Запасные: Агуэро, Ло Чельсо, Дибала, Кабальеро, Гусман, Ансальди, Биглия, Фасио, Акунья, Игуаин, Меса, Сальвио.
Код: Выделить всё
General
ID                          : 1 (0x1)
Complete name               : E:\Чемпионат мира 2018\Чемпионат Мира 2018  18 финала  Франция - Аргентина + Студии  BBC One HD\20180630-FRA-ARG-WC18_1.ts
Format                      : MPEG-TS
File size                   : 2.78 GiB
Duration                    : 53 min 34 s
Overall bit rate mode       : Variable
Overall bit rate            : 7 438 kb/s
Video
ID                          : 5400 (0x1518)
Menu ID                     : 1 (0x1)
Format                      : AVC
Format/Info                 : Advanced Video Codec
Format profile              : High@L4
Format settings             : CABAC / 4 Ref Frames
Format settings, CABAC      : Yes
Format settings, RefFrames  : 4 frames
Codec ID                    : 27
Duration                    : 53 min 34 s
Bit rate                    : 6 424 kb/s
Width                       : 1 920 pixels
Height                      : 1 080 pixels
Display aspect ratio        : 16:9
Frame rate                  : 25.000 FPS
Standard                    : Component
Color space                 : YUV
Chroma subsampling          : 4:2:0
Bit depth                   : 8 bits
Scan type                   : MBAFF
Scan type, store method     : Separated fields
Scan order                  : Top Field First
Bits/(Pixel*Frame)          : 0.124
Stream size                 : 2.40 GiB (86%)
Color range                 : Limited
Color primaries             : BT.709
Transfer characteristics    : BT.709
Matrix coefficients         : BT.709
Audio #1
ID                          : 5401 (0x1519)
Menu ID                     : 1 (0x1)
Format                      : AC-3
Format/Info                 : Audio Coding 3
Format settings, Endianness : Big
Codec ID                    : 6
Duration                    : 53 min 34 s
Bit rate mode               : Constant
Bit rate                    : 384 kb/s
Channel(s)                  : 6 channels
Channel positions           : Front: L C R, Side: L R, LFE
Sampling rate               : 48.0 kHz
Frame rate                  : 31.250 FPS (1536 SPF)
Bit depth                   : 16 bits
Compression mode            : Lossy
Stream size                 : 147 MiB (5%)
Language                    : English
Service kind                : Complete Main
Audio #2
ID                          : 5402 (0x151A)
Menu ID                     : 1 (0x1)
Format                      : MPEG Audio
Format version              : Version 1
Format profile              : Layer 2
Codec ID                    : 3
Duration                    : 53 min 34 s
Bit rate mode               : Constant
Bit rate                    : 256 kb/s
Channel(s)                  : 2 channels
Sampling rate               : 48.0 kHz
Compression mode            : Lossy
Stream size                 : 98.1 MiB (3%)
Language                    : nar




Не забывайте говорить Спасибо. Не уходите с раздачи!   
Торрент: Зарегистрирован [04 июл 2018, 11:32]
Статус:
Проверен
 
.torrent скачан: 0 раз
Хэш: cf3d307dbbbe8309bc9cc94f0e4eb5b34ca95713
Размер: 8.2 ГБ (8 807 949 084 байт)
   Стать Автором раздачи
   
Цитата
  • Похожие торренты
    Ответы
    Просмотры
    Последнее сообщение

Вернуться в Чемпионат Мира 2018 (плей-офф финального турнира)

Кто сейчас на конференции

Сейчас эту тему просматривают: нет зарегистрированных пользователей и гости: 1