Чемпионат мира 2018 / 1/4 финала / Бразилия - Бельгия / ZDF HD [06.07.2018, Футбол, HDTV/720p/50fps, TS/H.264, DE]

 Статистика раздачи 
Размер: 12.42 ГБ   |  Зарегистрирован: 06 июл 2018, 20:13   |   .torrent скачан: 0 раз
Сидеров: 0  [ 0 байт/сек ]     Личеров: 0  [ 0 байт/сек ]  
  
Аватара пользователя
Главный редактор
Главный редактор
 
Раздал: 90.01 ТБ
Скачал: 3.78 ТБ
Ратио: 24.248
Сообщения: 281933
Стаж: 9 лет 2 месяца 23 дня
Откуда: Санкт-Петербург

Чемпионат мира 2018
1/4 финала
Бразилия - Бельгия
Год выпуска: 06.07.2018
Вид спорта: Футбол
Комментарий: Профессиональный
Язык комментариев: Немецкий
Описание: 06 июля 2018 года, пятница. 21:00 МСК
1/4 финала
Стадион: Казань Арена (Казань, Россия) , вместимость: 45379
Главный судья: Милорад Мажич (Врбас, Сербия) Ассистент: Милован Ристич (Врбас, Сербия) Ассистент: Далибор Джурджевич (Сербия)
Автор рипа: Настольный Теннисист
Качество: HDTV
Формат: TS
Видео кодек: H.264
Аудио кодек: AС3/MP2
Видео: MPEG4 Video (H.264) 1280x720 (16:9) 50fps 13800kbps
Аудио 1: Dolby AC3 48000Hz 6ch 448kbps
Аудио 2: MPEG Audio 48000Hz 2ch 256kbps
Аудио 3: MPEG Audio 48000Hz 2ch 192kbps
Аудио 4: MPEG Audio 48000Hz 2ch 192kbps


Код: Выделить всё
General
ID                                       : 1 (0x1)
Complete name                            : Y:\раздачи\WC2018.QF.BRA-BEL.ZDFHD.DE.Злобный.ts
Format                                   : MPEG-TS
File size                                : 12.4 GiB
Duration                                 : 1 h 53 min
Overall bit rate mode                    : Variable
Overall bit rate                         : 15.6 Mb/s
Video
ID                                       : 6110 (0x17DE)
Menu ID                                  : 11110 (0x2B66)
Format                                   : AVC
Format/Info                              : Advanced Video Codec
Format profile                           : High@L4
Format settings, CABAC                   : Yes
Format settings, RefFrames               : 6 frames
Codec ID                                 : 27
Duration                                 : 1 h 53 min
Bit rate                                 : 13.8 Mb/s
Width                                    : 1 280 pixels
Height                                   : 720 pixels
Display aspect ratio                     : 16:9
Frame rate                               : 50.000 FPS
Color space                              : YUV
Chroma subsampling                       : 4:2:0
Bit depth                                : 8 bits
Scan type                                : Progressive
Bits/(Pixel*Frame)                       : 0.299
Stream size                              : 10.9 GiB (88%)
Color range                              : Limited
Color primaries                          : BT.709
Transfer characteristics                 : BT.709
Matrix coefficients                      : BT.709
Audio #1
ID                                       : 6120 (0x17E8)
Menu ID                                  : 11110 (0x2B66)
Format                                   : AC-3
Format/Info                              : Audio Coding 3
Format settings, Endianness              : Big
Codec ID                                 : 6
Duration                                 : 1 h 53 min
Bit rate mode                            : Constant
Bit rate                                 : 448 kb/s
Channel(s)                               : 6 channels
Channel positions                        : Front: L C R, Side: L R, LFE
Sampling rate                            : 48.0 kHz
Frame rate                               : 31.250 FPS (1536 SPF)
Bit depth                                : 16 bits
Compression mode                         : Lossy
Stream size                              : 365 MiB (3%)
Language                                 : German
Service kind                             : Complete Main
Audio #2
ID                                       : 6121 (0x17E9)
Menu ID                                  : 11110 (0x2B66)
Format                                   : MPEG Audio
Format version                           : Version 1
Format profile                           : Layer 2
Codec ID                                 : 3
Duration                                 : 1 h 53 min
Bit rate mode                            : Constant
Bit rate                                 : 256 kb/s
Channel(s)                               : 2 channels
Sampling rate                            : 48.0 kHz
Compression mode                         : Lossy
Stream size                              : 208 MiB (2%)
Language                                 : German
Audio #3
ID                                       : 6122 (0x17EA)
Menu ID                                  : 11110 (0x2B66)
Format                                   : MPEG Audio
Format version                           : Version 1
Format profile                           : Layer 2
Codec ID                                 : 3
Duration                                 : 1 h 53 min
Bit rate mode                            : Constant
Bit rate                                 : 192 kb/s
Channel(s)                               : 2 channels
Sampling rate                            : 48.0 kHz
Compression mode                         : Lossy
Stream size                              : 156 MiB (1%)
Audio #4
ID                                       : 6123 (0x17EB)
Menu ID                                  : 11110 (0x2B66)
Format                                   : MPEG Audio
Format version                           : Version 1
Format profile                           : Layer 2
Codec ID                                 : 3
Duration                                 : 1 h 53 min
Bit rate mode                            : Constant
Bit rate                                 : 192 kb/s
Channel(s)                               : 2 channels
Sampling rate                            : 48.0 kHz
Compression mode                         : Lossy
Stream size                              : 156 MiB (1%)
Language                                 : Multiple languages
Text
ID                                       : 6125 (0x17ED)
Menu ID                                  : 11110 (0x2B66)
Format                                   : DVB Subtitle
Codec ID                                 : 6
Duration                                 : 1 h 53 min
Delay relative to video                  : 11 s 880 ms
Language                                 : German
Other
ID                                       : 6124 (0x17EC)-100
Menu ID                                  : 11110 (0x2B66)
Format                                   : Teletext
Language                                 : German
01:53:46
1:2
Не забывайте говорить Спасибо. Не уходите с раздачи!   
Торрент: Зарегистрирован [06 июл 2018, 20:13]
Статус:
Проверен
 
.torrent скачан: 0 раз
Хэш: e5a49aeabc59dd9d22e9dca7358fe93e33f12c9d
Размер: 12.42 ГБ (13 334 284 836 байт)
   Стать Автором раздачи
   
Цитата
  • Похожие торренты
    Ответы
    Просмотры
    Последнее сообщение

Вернуться в Чемпионат Мира 2018 (плей-офф финального турнира)

Кто сейчас на конференции

Сейчас эту тему просматривают: нет зарегистрированных пользователей и гости: 1