Стыд / Skam [S04] (2017) WEBRip 720p | GreenРай Studio

 Статистика раздачи 
Размер: 8.83 ГБ   |  Зарегистрирован: 15 июл 2018, 12:17   |   .torrent скачан: 158 раз
Сидеров: 29  [ 0 байт/сек ]     Личеров: 1  [ 0 байт/сек ]  
  
Аватара пользователя
Главный редактор
Главный редактор
Я на сайте
 
Раздал: 90.01 ТБ
Скачал: 3.78 ТБ
Ратио: 24.248
Сообщения: 285785
Стаж: 9 лет 3 месяца 28 дней
Откуда: Санкт-Петербург
СообщениеДобавлено: 15 июл 2018, 12:17


Информация о фильме
Год выхода: 2017
Наименование: Стыд
Оригинальное наименование: Skam
Страна: Норвегия
Жанр: драма, мелодрама
Режиссер постановщик: Юлие Андем
В главных ролях: Юсефине Фрида Петтерсен, Иман Мескини, Ульрикке Фалк, Лиза Тейге, Тарьей Сандвик Му, Марлон Лангеланд, Томас Хэйес, Герман Томмераас

О фильме: Сериал о жизни пяти подруг из старшей школы «Hartvig Nissens» в Осло. На примере Евы, Нуры, Вильде, Крис и Саны мы можем увидеть, какие события переживают норвежские подростки в повседневной жизни: первая любовь и измены, дружба и предательство, общественное порицание и популярность и, конечно, подготовка к выпуску.



Файл
Качество: WEBRip 720p
Видео данные: MKV, 1280x720 (16:9), 23.976 fps, 3410 Кбит/с
Аудио данные: AAC, 2 ch, 192 Кбит/с
Перевод: Любительский многоголосый (GreenРай Studio)
Продолжительность: 10 x 00:25:00

General
Unique ID : 289533686527788521552305033439908568712 (0xD9D228E0BD9867DD5F45BCCDD59D9E88)
Complete name : E:ГРИНРАЙSkam.S04.720p[WEB].Skam_s04e01.[720p].mkv
Format : Matroska
Format version : Version 4 / Version 2
File size : 666 MiB
Duration : 25 min 50 s
Overall bit rate : 3 602 kb/s
Encoded date : UTC 2018-07-14 10:22:09
Writing application : mkvmerge v25.0.0 ('Prog Noir') 64-bit
Writing library : libebml v1.3.6 + libmatroska v1.4.9

Video
ID : 1
Format : AVC
Format/Info : Advanced Video Codec
Format profile : High@L3.1
Format settings : CABAC / 1 Ref Frames
Format settings, CABAC : Yes
Format settings, RefFrames : 1 frame
Format settings, GOP : M=1, N=30
Codec ID : V_MPEG4/ISO/AVC
Duration : 25 min 50 s
Bit rate : 3 410 kb/s
Width : 1 280 pixels
Height : 720 pixels
Display aspect ratio : 16:9
Frame rate mode : Constant
Frame rate : 23.976 (24000/1001) FPS
Color space : YUV
Chroma subsampling : 4:2:0
Bit depth : 8 bits
Scan type : Progressive
Bits/(Pixel*Frame) : 0.154
Stream size : 630 MiB (95%)
Language : English
Default : Yes
Forced : No

Audio
ID : 2
Format : AAC
Format/Info : Advanced Audio Codec
Format profile : LC
Codec ID : A_AAC-2
Duration : 25 min 50 s
Bit rate : 192 kb/s
Channel(s) : 2 channels
Channel positions : Front: L R
Sampling rate : 48.0 kHz
Frame rate : 46.875 FPS (1024 SPF)
Compression mode : Lossy
Stream size : 35.0 MiB (5%)
Language : English
Default : Yes
Forced : No


Внимание, имеется видео и аудио реклама от спонсора показа



Релиз от:
Не забывайте говорить Спасибо. Не уходите с раздачи!   
Торрент: Зарегистрирован [15 июл 2018, 12:17]
Статус:
Проверен
 
.torrent скачан: 158 раз
Хэш: 69c3b6d9c541ef16b1fa147463830ae65ff7b6f9
Размер: 8.83 ГБ (9 476 541 890 байт)
   Стать Автором раздачи
   
Цитата
  • Похожие торренты
    Ответы
    Просмотры
    Последнее сообщение

Вернуться в Стыд / Skam

Кто сейчас на конференции

Сейчас эту тему просматривают: нет зарегистрированных пользователей и гости: 1