Молодой Папа / The Young Pope [S01] (2016) HDRip от Generalfilm | КПК | Кубик в Кубе

 Статистика раздачи 
Размер: 2.43 ГБ   |  Зарегистрирован: 03 май 2018, 11:03   |   .torrent скачан: 278 раз
Сидеров: 124  [ 0 байт/сек ]     Личеров: 3  [ 0 байт/сек ]  
  
Аватара пользователя
Главный редактор
Главный редактор
Я на сайте
 
Раздал: 90.01 ТБ
Скачал: 3.78 ТБ
Ратио: 24.248
Сообщения: 285793
Стаж: 9 лет 3 месяца 28 дней
Откуда: Санкт-Петербург

Информация о фильме
Название: Молодой Папа
Оригинальное название: The Young Pope
Год выхода: 2016
Жанр: Драма
Режиссер: Паоло Соррентино
В ролях: Джуд Лоу, Тони Берторелли, Дайан Китон, Владимир Бибик, Гай Бойд, Джеймс Кромуэлл, Хавьер Камара, Сесиль Де Франс, Андре Грегори

О фильме:
История италоамериканца Ленни Белардо, избранного папой римским Пием XIII. Ленни — сложный человек, который ведет себя эксцентрично, а иногда и пугающе, и действия его на посту папы предугадать не так-то просто, отчего кардиналы плетут свои интриги против него.



Страна: Италия, Франция, Испания, Великобритания, США
Студия: Canal+, Haut et Court TV
Продолжительность: 10 x ~ 00:55:00
Перевод: Профессиональный (двухголосый, закадровый) [Кубик в Кубе]

Файл
Формат: MP4
Качество: HDRip | КПК
Видео: MPEG-4 AVC (x264), 640x320, ~500 kbps, 25.000 fps
Аудио: AAC LC, 48.0 KHz, 2 ch, 128 Kbps
Субтитры: Нет
Реклама: Присутствует аудиореклама
Ограничения: Присутствует ненормативная лексика

Семпл


Complete name : F:КИНОMolodoj.Papa.AVC.KPK.GFMolodoj.Papa.S01.2016.AVC.WEB-DLRip.KPK.KvK.GFMolodoj.Papa.s01e02.2016.AVC.WEB-DLRip.KPK.KvK.GF.mp4
Format : MPEG-4
Codec ID : M4V (isom/iso2/avc1)
File size : 251 MiB
Duration : 55 min 23 s
Overall bit rate mode : Variable
Overall bit rate : 634 kb/s
Writing application : Lavf53.19.0

Video
ID : 1
Format : AVC
Format/Info : Advanced Video Codec
Format profile : High@L4.1
Format settings, CABAC : Yes
Format settings, RefFrames : 8 frames
Codec ID : avc1
Codec ID/Info : Advanced Video Coding
Duration : 55 min 23 s
Bit rate : 500 kb/s
Width : 640 pixels
Height : 360 pixels
Display aspect ratio : 16:9
Frame rate mode : Constant
Frame rate : 25.000 FPS
Color space : YUV
Chroma subsampling : 4:2:0
Bit depth : 8 bits
Scan type : Progressive
Bits/(Pixel*Frame) : 0.087
Stream size : 198 MiB (79%)
Writing library : x264 core 148 r2638 7599210
Encoding settings : cabac=1 / ref=8 / deblock=1:-1:-1 / analyse=0x3:0x133 / me=umh / subme=10 / psy=1 / psy_rd=1.00:0.00 / mixed_ref=1 / me_range=24 / chroma_me=1 / trellis=2 / 8x8dct=1 / cqm=0 / deadzone=21,11 / fast_pskip=1 / chroma_qp_offset=-2 / threads=6 / lookahead_threads=1 / sliced_threads=0 / nr=0 / decimate=1 / interlaced=0 / bluray_compat=0 / constrained_intra=0 / bframes=8 / b_pyramid=2 / b_adapt=2 / b_bias=0 / direct=3 / weightb=1 / open_gop=0 / weightp=2 / keyint=250 / keyint_min=126 / scenecut=40 / intra_refresh=0 / rc_lookahead=40 / rc=2pass / mbtree=1 / bitrate=500 / ratetol=1.0 / qcomp=0.60 / qpmin=0 / qpmax=69 / qpstep=4 / cplxblur=20.0 / qblur=0.5 / ip_ratio=1.40 / aq=1:1.00
Menus : 3

Audio
ID : 2
Format : AAC
Format/Info : Advanced Audio Codec
Format profile : LC
Codec ID : 40
Duration : 55 min 23 s
Bit rate mode : Variable
Bit rate : 128 kb/s
Channel(s) : 2 channels
Channel positions : Front: L R
Sampling rate : 48.0 kHz
Frame rate : 46.875 FPS (1024 SPF)
Compression mode : Lossy
Stream size : 50.7 MiB (20%)
Default : Yes
Alternate group : 1
Menus : 3

Релиз от:
Не забывайте говорить Спасибо. Не уходите с раздачи!   
Торрент: Зарегистрирован [03 май 2018, 11:03]
Статус:
Проверен
 
.torrent скачан: 278 раз
Хэш: 4da21f6264b2523744efb73fcf2a844a5515a74a
Размер: 2.43 ГБ (2 605 974 198 байт)
   Стать Автором раздачи
   
Цитата

Вернуться в Молодой Папа / The Young Pope

Кто сейчас на конференции

Сейчас эту тему просматривают: нет зарегистрированных пользователей и гости: 1