Пилот / La Piloto / Серии: 1-35 (80) (Йёрг Хиллер / Jörg Hiller) [2017, Мексика, США, Теленовелла, SATRip] Rus Sub

 Статистика раздачи 
Размер: 12.07 ГБ   |  Зарегистрирован: 05 июл 2017, 20:05   |   .torrent скачан: 0 раз
Сидеров: 6  [ 0 байт/сек ]     Личеров: 1  [ 0 байт/сек ]  
  
Аватара пользователя
Главный редактор
Главный редактор
 
Раздал: 90.01 ТБ
Скачал: 3.78 ТБ
Ратио: 24.248
Сообщения: 254682
Стаж: 9 лет 22 дня
Откуда: Санкт-Петербург

Пилот / La Piloto
Год выпуска: 2017
Страна: Мексика, США
Производство: Univision
Жанр: Теленовелла
Серии (количество): 1-30 (80)
Продолжительность: 45:00:00 / каждая серия
Перевод: отсутствует
Субтитры: Русские (hardsub)
Режиссёр: Йёрг Хиллер / Jörg Hiller
В ролях: Ливия Брито - Йоланда Кадена
Арап Бетке - Джон Лусио
Хуан Колучо - Дэйв Мехия, Альберто Диас
Мария Фернанда Йепес - Зулима Монтес
Алехандро Ноньес - Оскар Лусио
Описание: Йоланда мечтает стать пилотом, но обучение дорогостоящее и она соглашается на предложение подруги Зулимы поработать стюардессой. Авиакомпания, где работает Йоланда, принадлежит братьям Лусио, которые ведут нелегальный бизнес по перевозке наркотиков в Центральной Америке. Ради денег для обучения на пилота Йоланда втягивается в бизнес братьев Лусио, и случайно спасает жизнь самому Джону Лусио, который влюбляется в неё. А сама Йоланда неравнодушна к бортпроводнику, который оказался Дэйвом Мехия - внедренным в авиакомпанию агентом Управления по борьбе с наркотиками. Йоланда оказывается между "ангелом" и "демоном", которые оба влюблены в неё. Как сложится её судьба?
Доп. информация:
Перевод сделан форумчанами МундоЛатино.
Сериал в процессе перевода.
1-35 серии по состоянию на 11.10.2017
Сэмпл: http://multi-up.com/1160354
Ссылка на предыдущие и альтернативные раздачи: http://rutracker.org/forum/tracker.php?nm=La%20Piloto
Качество: SATRip
Формат: AVI
Видео кодек: XviD
Аудио кодек: MP3
Видео: XviD MPEG-4, 640*360, 700-850 kbps avg, 0,12-0.15 bit/pixel
Аудио: MPEG Layer 3, 44.100 kHz, 2 ch, 128.00 kbps avg
General
Complete name : D:\LaPiloto\La_Piloto_01_rus.avi
Format : AVI
Format/Info : Audio Video Interleave
File size : 413 MiB
Duration : 50mn 49s
Overall bit rate : 1 008 Kbps
Writing application : VirtualDubMod 1.5.10.2 (build 2542/release)
Writing library : VirtualDubMod build 2542/release
Video
ID : 0
Format : MPEG-4 Visual
Format profile : Advanced Simple@L5
Format settings, BVOP : 2
Format settings, QPel : No
Format settings, GMC : No warppoints
Format settings, Matrix : Default (H.263)
Muxing mode : Packed bitstream
Codec ID : XVID
Codec ID/Hint : XviD
Duration : 50mn 49s
Bit rate : 870 Kbps
Width : 640 pixels
Height : 360 pixels
Display aspect ratio : 16:9
Frame rate : 25.000 fps
Color space : YUV
Chroma subsampling : 4:2:0
Bit depth : 8 bits
Scan type : Progressive
Compression mode : Lossy
Bits/(Pixel*Frame) : 0.151
Stream size : 324 MiB (86%)
Writing library : XviD 64
Audio
ID : 1
Format : MPEG Audio
Format version : Version 1
Format profile : Layer 3
Mode : Joint stereo
Codec ID : 55
Codec ID/Hint : MP3
Duration : 38mn 53s
Bit rate mode : Constant
Bit rate : 128 Kbps
Channel(s) : 2 channels
Sampling rate : 44.1 KHz
Compression mode : Lossy
Stream size : 35.2 MiB (13%)
Alignment : Split accross interleaves
Interleave, duration : 40 ms (1.00 video frame)
Interleave, preload duration : 500 ms
Не забывайте говорить Спасибо. Не уходите с раздачи!   
Торрент: Зарегистрирован [05 июл 2017, 20:05]
Статус:
Проверен
 
.torrent скачан: 0 раз
Хэш: 3f6391c0264f73c9c78acb6907f2799561014f4f
Размер: 12.07 ГБ (12 955 250 688 байт)
   Стать Автором раздачи
   
Цитата
  • Похожие торренты
    Ответы
    Просмотры
    Последнее сообщение

Вернуться в Сериалы Латинской Америки с субтитрами

Кто сейчас на конференции

Сейчас эту тему просматривают: нет зарегистрированных пользователей и гости: 1