Раны любви / Heridas De Amor / Серии: 57-77 (130) (Серхио Катаньо) [2006, Мексика, Теленовелла, SATRip] sub rus

 Статистика раздачи 
Размер: 7.59 ГБ   |  Зарегистрирован: 21 июл 2016, 08:01   |   .torrent скачан: 0 раз
Сидеров: 4  [ 0 байт/сек ]     Личеров: 0  [ 0 байт/сек ]  
  
Аватара пользователя
Главный редактор
Главный редактор
 
Раздал: 90.01 ТБ
Скачал: 3.78 ТБ
Ратио: 24.248
Сообщения: 254682
Стаж: 9 лет 22 дня
Откуда: Санкт-Петербург

Раны любви / Heridas De Amor
Год выпуска: 2006
Страна: Мексика
Производство: Televisa
Жанр: Теленовелла
Серии (количество): 57-77 (130)
Продолжительность: ~ 00:42:00 / каждая серия
Перевод: Субтитры
Субтитры: Русские (hardsub)
Режиссёр: Серхио Катаньо
В ролях: Алехандро Луке - Гай Эккер
Миранда Сан Льоренте - Жаклин Бракамонтес
Сезар Бельтран - Серхио Сендел
Берта Де Арагон - Даина Брачо
Гонсало Сан Льоренте - Энрике Лизарде
Фернанда Де Арагон - Нурия Багес
Рената Сан Льоренте - Ингрид Мартц
Памела - Гретель Вальдес
Фабрисио Бельтран - Хосе Луис Рендез
Описание: Миранда и Алехандро борются за свою любовь на протяжении всего сериала, так как знают, что только любовь может излечивать все раны. Миранда Сан Лоренте — молодая женщина, у которой есть все: красота, деньги и власть. Ее отец, миллионер Гонсало Сан Лоренте, из всех своих трех дочерей решает доверить свое состояние только ей. Старшая сестра Миранды, Флоренсия, страдает заболеванием сердца. А младшая сестра Рената — всего лишь капризная избалованная девочка. В скором времени из Германии возвращается жених Миранды — Фабрисио. Но она не подозревает, что он не собирается жениться не на ней, а на Флоренсии. Все это было тщательно подготовлено Бертой де Арагон, тетей Миранды по материнской линии, так как ненавидит Миранду.
Фабрисио возвращается не один, а со своим другом Алехандро, который приезжает в Мексику для того, чтобы отомстить Гонсало. Он уверен, что именно тот убил его отца. Алехандро встречает Миранду и влюбляется в нее. Но когда он узнает, что она дочь его заклятого врага, его охватывает потрясение. Он понимает, что им необходимо расстаться, так как столкновение любви и ненависти наносит им тяжелые раны.
Весь бизнес Гонсало идет крахом из-за преступных махинаций Сезара Бельтрана, брата Фабрисио, и его сообщницы, Берты. Гонсало становится банкротом и отправляется в тюрьму. Миранда ставит перед собой цель восстановить репутацию отца, вернуть семейное состояние, восстановить семью и найти свою мать Фернанду, которая давно покинула дом из-за интриг Берты.
Миранде и Алехандро придется преодолеть все жизненные препятствия, а также злодейства Сезара, влюбленного в Миранду, и интриги Берты, которая с первого взгляда влюбилась в Алехандро. Они вместе поймут, что только любовь поможет залечать все их раны.
Доп. информация:Перевод сделан форумчанами МундоЛатино.
Сериал в процессе перевода.
57-77 серии по состоянию на 01.10.2017
Предыдущие серии в теме - http://rutracker.org/forum/viewtopic.php?t=4814834
Внимание! Раздача ведётся путём добавления новых серий; при каждом добавлении создаётся новый торрент. Чтобы начать докачку новой серии, пользователям необходимо сделать следующее:Остановить скачивание.
Удалить старый торрент у себя из клиента (старые серии удалять не надо).
[*]Скачать новый торрент и запустить его у себя в клиенте вместо старого, при этом указать клиенту путь в старую папку куда и должно происходить скачивание новых серий.Ваш клиент при этом должен произвести хеширование (проверку) старой папки (если не производит сам - помогите ему сделать это), и будет докачивать только те серии которых у вас ещё нет. Старые серии при этом не удаляются, а продолжают раздаваться!
Eсли вы уже удалили старые серии, то предотвратить повторную закачку старых серий можно, отжав галочку в соответствующих местах при запуске нового торрента. По возможности, желательно не удалять старые серии как можно дольше чтобы релизёр не столько продолжал раздавать старые серии, а смог сконцентрироваться на новых.
Сэмпл: http://multi-up.com/996155
Ссылка на предыдущие и альтернативные раздачи: http://rutracker.org/forum/tracker.php?nm=Heridas%20De%20Amor
Качество: SATRip
Формат: AVI
Видео кодек: DivX
Аудио кодек: MP3
Видео: XviD MPEG-4, 640*360, 1000 kbps avg, 0,12-0.15 bit/pixel
Аудио: MPEG Layer 3, 44.100 kHz, 2 ch, 128.00 kbps avg
General
Complete name : D:\HeridasDeAmor\Heridas_De_Amor_01_rus.avi
Format : AVI
Format/Info : Audio Video Interleave
File size : 345 MiB
Duration : 42mn 30s
Overall bit rate : 1 008 Kbps
Writing application : VirtualDubMod 1.5.10.2 (build 2542/release)
Writing library : VirtualDubMod build 2542/release
Video
ID : 0
Format : MPEG-4 Visual
Format profile : Advanced Simple@L5
Format settings, BVOP : 2
Format settings, QPel : No
Format settings, GMC : No warppoints
Format settings, Matrix : Default (H.263)
Muxing mode : Packed bitstream
Codec ID : XVID
Codec ID/Hint : XviD
Duration : 42mn 30s
Bit rate : 1000 Kbps
Width : 640 pixels
Height : 360 pixels
Display aspect ratio : 16:9
Frame rate : 25.000 fps
Color space : YUV
Chroma subsampling : 4:2:0
Bit depth : 8 bits
Scan type : Progressive
Compression mode : Lossy
Bits/(Pixel*Frame) : 0.151
Stream size : 345 MiB (86%)
Writing library : XviD 64
Audio
ID : 1
Format : MPEG Audio
Format version : Version 1
Format profile : Layer 3
Mode : Joint stereo
Codec ID : 55
Codec ID/Hint : MP3
Duration : 42mn 30s
Bit rate mode : Constant
Bit rate : 128 Kbps
Channel(s) : 2 channels
Sampling rate : 44.1 KHz
Compression mode : Lossy
Stream size : 34.2 MiB (13%)
Alignment : Split accross interleaves
Interleave, duration : 40 ms (1.00 video frame)
Interleave, preload duration : 500 ms
Не забывайте говорить Спасибо. Не уходите с раздачи!   
Торрент: Зарегистрирован [21 июл 2016, 08:01]
Статус:
Проверен
 
.torrent скачан: 0 раз
Хэш: dcfe7feaefb034efd1d9e41f1d1199523b10415d
Размер: 7.59 ГБ (8 149 106 688 байт)
   Стать Автором раздачи
   
Цитата
  • Похожие торренты
    Ответы
    Просмотры
    Последнее сообщение

Вернуться в Сериалы Латинской Америки с субтитрами

Кто сейчас на конференции

Сейчас эту тему просматривают: нет зарегистрированных пользователей и гости: 1