Нано / Nano / Серии:(01-11 195) (Родольфо Хопп, Роло Перейра) [1994, Аргентина, Мелодрама, SATRip] rus sub

 Статистика раздачи 
Размер: 727.73 МБ   |  Зарегистрирован: 30 мар 2016, 13:44   |   .torrent скачан: 0 раз
Сидеров: 4  [ 0 байт/сек ]     Личеров: 2  [ 0 байт/сек ]  
  
Аватара пользователя
Главный редактор
Главный редактор
 
Раздал: 90.01 ТБ
Скачал: 3.78 ТБ
Ратио: 24.248
Сообщения: 254682
Стаж: 9 лет 22 дня
Откуда: Санкт-Петербург

Нано / Nano
Год выпуска: 1994
Страна: Аргентина
Жанр: Мелодрама
Серии (количество): 10-11 (195)
Продолжительность: 00:40:23 / каждая серия
Перевод: Субтитры
Субтитры: Русские (hardsub)
Режиссёр: Родольфо Хопп, Роло Перейра
В ролях: Густаво Бермудез, Лидия Ламайсон, Марио Пасик, Арасели Гонсалес, Эмилия Мазер, Сесилия Ценси
Описание: О сериале: Нано - прозвище Мануэля Эспада, очень необычного молодого человека. Он - сын богатых родителей и женат на сварливой Росарио, к которой не испытывает никаких чувств. Отец мечтает, чтобы Нано возглавил их семейный бизнес, но у молодого человека совсем другая страсть - океанариум, который он содержит и в котором находит успокоение от суеты и жестокости окружающего мира. А по ночам Нано преображается в Робин Гуда нашего времени - он ворует у богатых добро, нажитое нечестным путём, и раздаёт его бедным. В океанариуме за ним часто наблюдает Камила, глухонемая девушка, которой в детстве довелось стать свидетельницей убийства собственных родителей. С тех пор ей каждый день приходится бороться с привидениями, о которых она не может никому рассказать. Постепенно Камила и Нано сближаются, став людьми, которые понимают друг друга без слов. Но у них на пути встают многочисленные препятствия из настоящего и из далёкого прошлого: однажды Камила вспомнит, что отец Нано был тем самым человеком, что убил её родителей...
Дополнительная информация: Сериал находится в процессе перевода, серии будут добавляться раз в месяц. Серии будут добавляться путем добавлений новых серий
За перевод "спасибо" группе ВКонтакте (серии 10, 11 )

Первые серии "Нано" будут добавляться.
Сэмпл: Сэмпл
Ссылка на предыдущие и альтернативные раздачи: Раздача
Качество: SATRip
Формат: AVI
Видео кодек: XviD
Аудио кодек: MP3
Видео: 640х480 (1.33:1), 25 fps, XviD MPeg-4 ~249-1329 kbps, 0.17 бит/пихел
Аудио: 48 kHz, 2 ch, ~128.00 kbps avg
01-11 добавлены 11042018
Общее
Полное имя : E:\НАНО\НН 0010.avi
Формат : AVI
Формат/Информация : Audio Video Interleave
Размер файла : 462 Мбайт
Продолжительность : 44 м.
Общий поток : 1467 Кбит/сек
Библиотека кодирования : VirtualDub build 32842/release
Видео
Идентификатор : 0
Формат : MPEG-4 Visual
Профиль формата : Advanced Simple@L5
Параметр BVOP формата : 1
Параметр QPel формата : Нет
Параметр GMC формата : Без точки перехода
Параметр матрицы формата : Default (H.263)
Режим смешивания : Сжатый битовый поток
Идентификатор кодека : XVID
Идентификатор кодека/Подсказка : XviD
Продолжительность : 44 м.
Битрейт : 1329 Кбит/сек
Ширина : 640 пикселей
Высота : 480 пикселей
Соотношение сторон : 4:3
Частота кадров : 25,000 кадров/сек
Цветовое пространство : YUV
Субдискретизация насыщенности : 4:2:0
Битовая глубина : 8 бит
Тип развёртки : Прогрессивная
Метод сжатия : С потерями
Бит/(Пиксели*Кадры) : 0.173
Размер потока : 418 Мбайт (91%)
Библиотека кодирования : XviD 64
Аудио
Идентификатор : 1
Формат : MPEG Audio
Версия формата : Version 1
Профиль формата : Layer 3
Режим : Joint stereo
Расширение режима : MS Stereo
Идентификатор кодека : 55
Идентификатор кодека/Подсказка : MP3
Продолжительность : 43 м.
Вид битрейта : Постоянный
Битрейт : 128 Кбит/сек
Каналы : 2 канала
Частота : 48,0 КГц
Метод сжатия : С потерями
Размер потока : 40,3 Мбайт (9%)
Выравнивание : Разделение по промежуткам
Продолжительность промежутка : 40 мс. (1,00 видеокадр)
Время предзагрузки промежутка : 500 мс.
ПРОСЬБА НЕ УХОДИТЬ С РАЗДАЧИ
Не забывайте говорить Спасибо. Не уходите с раздачи!   
Торрент: Зарегистрирован [30 мар 2016, 13:44]
Статус:
Проверен
 
.torrent скачан: 0 раз
Хэш: 9b61ab9b2cc934b8ce13e1da7a9c4e32d86d5432
Размер: 727.73 МБ (763 078 126 байт)
   Стать Автором раздачи
   
Цитата
  • Похожие торренты
    Ответы
    Просмотры
    Последнее сообщение

Вернуться в Сериалы Латинской Америки с субтитрами

Кто сейчас на конференции

Сейчас эту тему просматривают: нет зарегистрированных пользователей и гости: 1