Совершенно бесподобная / Totalmente Demais / Серии: 1-130 (130) (Luiz Henrique Rios) [2015, Бразилия, Теленовелла, TVRip] rus sub

 Статистика раздачи 
Размер: 100.55 ГБ   |  Зарегистрирован: 07 май 2017, 12:51   |   .torrent скачан: 0 раз
Сидеров: 4  [ 0 байт/сек ]     Личеров: 2  [ 0 байт/сек ]  
  
Аватара пользователя
Главный редактор
Главный редактор
 
Раздал: 90.01 ТБ
Скачал: 3.78 ТБ
Ратио: 24.248
Сообщения: 254682
Стаж: 9 лет 22 дня
Откуда: Санкт-Петербург

Совершенно бесподобная / Totalmente Demais
Год выпуска: 2015
Страна: Бразилия
Производство: Rede Globo
Жанр: Теленовелла
Серии (количество): 1-112 (130)
Продолжительность: 00:45:00
Субтитры: русские (hard sub), DORI MEDIA ot LTD.
Режиссёр: Луиш Энрике Риош / Luiz Henrique Rios
В ролях: Фабио Ассунсон, Леона Кавалли, Сержо Мальейрос, Марина Руй Барбоза, Умберто Мартинс, Жулиана Паэс, Джулиана Пайва, Вивиан Пажмантер, Паоло Роча, Фелипе Симас
Описание: В центре внимания этой истории оказывается простая восемнадцатилетняя девушка по имени Элиза. На юные плечи красавицы упали серьезные испытания. Все началось еще в детстве. Воспитанием героини занималась одна мать, потому что отец бросил семью, когда Элиза была еще совсем маленькой. Казалось бы, что без отца мать еще может справиться с обучением и содержанием дочери. Однако новый отчим оказался тем еще подонком. Дино начал в открытую приставать к своей падчерице. У Элизы не остается другого выбора, кроме как уйти из дома, чтобы продолжить жить одной. На жизнь девушка зарабатывает тем, что поет в небольшом баре, где, ко всему прочему, отдыхает известный бизнесмен Артур, являющийся владельцем модного глянцевого журнала. Он на спор пробудет сделать из простой девушки топ-модель. На глаза случайно попадается именно главная героиня. Что же с ней теперь будет?
Дополнительная информация: Запись сериала выполнена abraka , за что ей большое спасибо!
Ссылка на предыдущие и альтернативные раздачи: Все раздачи сериала
Качество: TVRip
Формат: AVI
Видео кодек: XviD
Аудио кодек: MP3
Видео: XviD, 704x400, 25.000 fps, 2 195 Kbps
Аудио: MP3, 48.0 KHz, 2 ch, 128 Kbps
General
Complete name : C:\Users\
Format : AVI
Format/Info : Audio Video Interleave
File size : 755 MiB
Duration : 45mn 14s
Overall bit rate : 2 333 Kbps
Writing library : VirtualDub-MPEG2 build 24600/release
Video
ID : 0
Format : MPEG-4 Visual
Format profile : Simple@L5
Format settings, BVOP : No
Format settings, QPel : No
Format settings, GMC : No warppoints
Format settings, Matrix : Default (H.263)
Codec ID : XVID
Codec ID/Hint : XviD
Duration : 45mn 14s
Bit rate : 2 195 Kbps
Width : 704 pixels
Height : 400 pixels
Display aspect ratio : 16:9
Frame rate : 25.000 fps
Color space : YUV
Chroma subsampling : 4:2:0
Bit depth : 8 bits
Scan type : Progressive
Compression mode : Lossy
Bits/(Pixel*Frame) : 0.312
Stream size : 710 MiB (94%)
Writing library : XviD 67
Audio
ID : 1
Format : MPEG Audio
Format version : Version 1
Format profile : Layer 3
Mode : Joint stereo
Mode extension : MS Stereo
Codec ID : 55
Codec ID/Hint : MP3
Duration : 45mn 14s
Bit rate mode : Constant
Bit rate : 128 Kbps
Channel(s) : 2 channels
Sampling rate : 48.0 KHz
Compression mode : Lossy
Stream size : 41.4 MiB (5%)
Alignment : Split accross interleaves
Interleave, duration : 40 ms (1.00 video frame)
Interleave, preload duration : 500 ms

Не забывайте говорить Спасибо. Не уходите с раздачи!   
Торрент: Зарегистрирован [07 май 2017, 12:51]
Статус:
Проверен
 
.torrent скачан: 0 раз
Хэш: e0a8e5eee08e152c9eb8d5ef23aae9ef1049525d
Размер: 100.55 ГБ (107 967 982 512 байт)
   Стать Автором раздачи
   
Цитата

Вернуться в Сериалы Латинской Америки с субтитрами

Кто сейчас на конференции

Сейчас эту тему просматривают: нет зарегистрированных пользователей и гости: 1