Королева Юга / La Reina del Sur / Серии: 01-63 (63) (Уолтер Доэнер / Walter Doehner) [2011, США, Колумбия, Испания, Теленовелла, Боевик, Драма, DVDRip]

 Статистика раздачи 
Размер: 43.31 ГБ   |  Зарегистрирован: 09 янв 2017, 10:52   |   .torrent скачан: 11 раз
Сидеров: 9  [ 0 байт/сек ]     Личеров: 4  [ 0 байт/сек ]  
  
Аватара пользователя
Главный редактор
Главный редактор
Я на сайте
 
Раздал: 90.01 ТБ
Скачал: 3.78 ТБ
Ратио: 24.248
Сообщения: 274856
Стаж: 9 лет 1 месяц 20 дней
Откуда: Санкт-Петербург

Королева Юга / La Reina del Sur
Год выпуска: 2011
Страна: США, Колумбия, Испания
Производство: Telemundo Studios Miami, RTI,
Жанр: Теленовелла, Боевик, Драма
Серии (количество): 63
Продолжительность: ~42 мин
Перевод: Профессиональный многоголосый закадровый 3STV
Субтитры: Нет
Режиссёр: Уолтер Доэнер / Walter Doehner
В ролях: Кейт дель Кастильо, Умберто Зурита, Рафаэль Амайа, Иван Санчез, Кристина Урхель, Альберто Хименес, Мигель Де Мигель, Дагоберто Гама, Илья Розентдаль, Сантьяго Мелендес, Хуан Хосе Архона и др.
Описание: История начинается 12 лет назад в Мексике. Оставив возлюбленной мобильный телефон, жених Тересы сказал ей: «Если этот телефон зазвонит, значит меня уже нет в живых и нужно бежать. Бежать и не останавливаться, потому что уже никто не сможет тебе помочь...» После смерти любимого, Тереса сбегает в Испанию, где встречает Патти О`Фаррел. Вместе они создают свою наркоимперию, проводя сделки с мафиями Испании, Франции, Италии и России.
Из молодой невинной девушки Тереса превращается в женщину, которая шокировала весь мир, и даже тех, кто знает её легенду, легенду Королевы Юга... Месть, любовь, тюрьма и опасность сделали ее такой.
Захватывающий с первых минут сериал снят по нашумевшей книге испанского писателя Артуро Переса-Реверте «Королева юга».
Доп. информация: Видеоматериал предоставила Sleon2002
Все раздачи сериала
Качество: DVDRip
Формат: AVI
Видео кодек: XviD
Аудио кодек: MP3
Видео: 720x400 (1.80:1), 29.970 fps, XviD build 65 ~1850 kbps avg, 0.21 bit/pixel
Аудио: 48000 Hz, AC3, 2 ch, 192 kbps
Аудио 2: 48000 Hz, AC3, 2 ch, 192 kbps
General
Complete name : E:\La Reina del Sur\La Reina del Sur 18.DVDRip.avi
Format : AVI
Format/Info : Audio Video Interleave
File size : 672 MiB
Duration : 39mn 57s
Overall bit rate : 2 352 Kbps
Writing application : VirtualDubMod 1.5.10.2 (build 2542/release)
Writing library : VirtualDubMod build 2542/release
Video
ID : 0
Format : MPEG-4 Visual
Format profile : Advanced Simple@L5
Format settings, BVOP : 1
Format settings, QPel : No
Format settings, GMC : No warppoints
Format settings, Matrix : Custom
Codec ID : XVID
Codec ID/Hint : XviD
Duration : 39mn 57s
Bit rate : 1 950 Kbps
Width : 720 pixels
Height : 400 pixels
Display aspect ratio : 16:9
Frame rate : 29.970 (30000/1001) fps
Color space : YUV
Chroma subsampling : 4:2:0
Bit depth : 8 bits
Scan type : Progressive
Compression mode : Lossy
Bits/(Pixel*Frame) : 0.226
Stream size : 557 MiB (83%)
Writing library : XviD 65
Audio #1
ID : 1
Format : AC-3
Format/Info : Audio Coding 3
Mode extension : CM (complete main)
Format settings, Endianness : Big
Codec ID : 2000
Duration : 39mn 57s
Bit rate mode : Constant
Bit rate : 192 Kbps
Channel(s) : 2 channels
Channel positions : Front: L R
Sampling rate : 48.0 KHz
Frame rate : 31.250 fps (1536 spf)
Compression mode : Lossy
Stream size : 54.9 MiB (8%)
Alignment : Split accross interleaves
Interleave, duration : 33 ms (1.00 video frame)
Interleave, preload duratio : 500 ms
Audio #2
ID : 2
Format : AC-3
Format/Info : Audio Coding 3
Mode extension : CM (complete main)
Format settings, Endianness : Big
Codec ID : 2000
Duration : 39mn 57s
Bit rate mode : Constant
Bit rate : 192 Kbps
Channel(s) : 2 channels
Channel positions : Front: L R
Sampling rate : 48.0 KHz
Frame rate : 31.250 fps (1536 spf)
Compression mode : Lossy
Stream size : 54.9 MiB (8%)
Alignment : Split accross interleaves
Interleave, duration : 33 ms (1.00 video frame)
Interleave, preload duratio : 500 ms


Не забывайте говорить Спасибо. Не уходите с раздачи!   
Торрент: Зарегистрирован [09 янв 2017, 10:52]
Статус:
Проверен
 
.torrent скачан: 11 раз
Хэш: 1e2c8496cf77227265c91c26898b4b9a8f762acf
Размер: 43.31 ГБ (46 499 573 760 байт)
   Стать Автором раздачи
   
Цитата
  • Похожие торренты
    Ответы
    Просмотры
    Последнее сообщение

Вернуться в Сериалы Латинской Америки с озвучкой

Кто сейчас на конференции

Сейчас эту тему просматривают: нет зарегистрированных пользователей и гости: 1