Безумцы / Mad Men [S07] (2015) WEB-DLRip | Gears Media & IdeaFilm

 Статистика раздачи 
Размер: 8.99 ГБ   |  Зарегистрирован: 20 май 2015, 13:21   |   .torrent скачан: 40935 раз
Сидеров: 3  [ 0 байт/сек ]     Личеров: 0  [ 0 байт/сек ]  
  
Аватара пользователя
Главный редактор
Главный редактор
 
Раздал: 83.18 ТБ
Скачал: 3.76 ТБ
Ратио: 22.548
Сообщения: 213311
Стаж: 8 лет 8 месяцев 21 день
Откуда: Санкт-Петербург

Информация о фильме
Название: Безумцы
Оригинальное название: Mad Men
Год выпуска: 2014 - 2015
Страна: США
Жанр: драма
Продолжительность: ~47 мин.

Перевод: Профессиональный (многоголосый закадровый, 3 голоса) IdeaFilm (1-7 серии)
Перевод: Профессиональный (многоголосый закадровый, 5 голосов) Gears Media & IdeaFilm (8-14 серии)

Режиссёр: Скотт Хорнбеккер, Кристофер Мэнли, Мэтью Уэйнер

В ролях: Джон Хэмм, Элизабет Мосс, Винсент Картайзер, Дженьюри Джонс, Кристина Хендрикс, Аарон Стэтон, Рич Соммер и другие.

Описание:
США, 60-е годы ХХ века. В центре повествования — работа рекламного Агентства «Стерлинг-Купер», расположенного на престижной Медисон-авеню в центре Нью-Йорка, и жизнь его креативного директора — мастера манипуляций и интриг — Дона Дрейпера. Находясь на вершине карьеры, он противостоит конкурентам, стараясь сберечь своe положение в компании. Служебные и семейные перипетии Дона и его коллег происходят на фоне глобальных событий в жизни американского общества тех лет

Доп. информация:
Студийная озвучка


Файл
Качество: WEB-DLRip
Контейнер: AVI

Видео: xvid, 720x400 [16:9], 23.976 fps, 1500 kbps, 0.179 bit/pixel
Аудио: русский, AC3, 48 kHz, 6 ch, 384 kbps
Субтитры: отсутствуют

Format : AVI
Format/Info : Audio Video Interleave
File size : 642 MiB
Duration : 47mn 45s
Overall bit rate : 1 879 Kbps
Writing application : VirtualDubMod 1.5.10.3 | www.virtualdub-fr.org || (build 2550/release)
Writing library : VirtualDubMod build 2550/release

Video
ID : 0
Format : MPEG-4 Visual
Format profile : Advanced Simple@L5
Format settings, BVOP : Yes
Format settings, QPel : No
Format settings, GMC : No warppoints
Format settings, Matrix : Default (H.263)
Codec ID : DX50
Codec ID/Hint : DivX 5
Duration : 47mn 45s
Bit rate : 1 485 Kbps
Width : 720 pixels
Height : 400 pixels
Display aspect ratio : 16:9
Frame rate : 23.976 fps
Color space : YUV
Chroma subsampling : 4:2:0
Bit depth : 8 bits
Scan type : Progressive
Compression mode : Lossy
Bits/(Pixel*Frame) : 0.215
Stream size : 507 MiB (79%)
Writing library : XviD 73

Audio
ID : 1
Format : AC-3
Format/Info : Audio Coding 3
Mode extension : CM (complete main)
Format settings, Endianness : Big
Codec ID : 2000
Duration : 47mn 45s
Bit rate mode : Constant
Bit rate : 384 Kbps
Channel count : 2 channels
Channel positions : Front: L R
Sampling rate : 48.0 KHz
Bit depth : 16 bits
Compression mode : Lossy
Stream size : 131 MiB (20%)
Alignment : Split accross interleaves
Interleave, duration : 42 ms (1.00 video frame)
Interleave, preload duration : 500 ms


Не забывайте говорить Спасибо. Не уходите с раздачи!   
Торрент: Зарегистрирован [20 май 2015, 13:21]
Статус:
Проверен
 
.torrent скачан: 40935 раз
Хэш: 0ad5d3d2156863dc791225c25d1eff911e9920a0
Размер: 8.99 ГБ (9 650 966 528 байт)
   Стать Автором раздачи
   
Цитата
  • Похожие торренты
    Ответы
    Просмотры
    Последнее сообщение

Вернуться в Безумцы / Mad Men

Кто сейчас на конференции

Сейчас эту тему просматривают: нет зарегистрированных пользователей и гости: 1