(Indie, Alternative) Yeah Yeah Yeahs - Mosquito (Deluxe Edition) - 2013, FLAC (tracks+.cue), lossless

 Статистика раздачи 
Размер: 409.52 МБ   |  Зарегистрирован: 10 июл 2018, 01:06   |   .torrent скачан: 0 раз
Сидеров: 13  [ 0 байт/сек ]     Личеров: 3  [ 0 байт/сек ]  
  
Аватара пользователя
 
Раздал: 2.75 ТБ
Скачал: 89.62 ГБ
Ратио: 31.394
Сообщения: 235599
Стаж: 3 года 7 месяцев 16 дней

Yeah Yeah Yeahs / Mosquito (Deluxe Edition)



Жанр: Indie, Alternative
Страна-производитель диска: Australia
Год издания: 2013
Издатель (лейбл): Modular Records / Interscope
Страна: USA
Аудиокодек: FLAC (*.flac)
Тип рипа: tracks+.cue
Битрейт аудио: lossless
Продолжительность: 57:54
Источник (релизер): what
Наличие сканов в содержимом раздачи: нет
Треклист:
3:50 | 01. Sacrilege
5:17 | 02. Subway
3:00 | 03. Mosquito
4:19 | 04. Under The Earth
4:06 | 05. Slave
5:03 | 06. These Paths
2:53 | 07. Area 52
5:17 | 08. Buried Alive (feat. Dr. Octagon)
4:05 | 09. Always
4:49 | 10. Despair
4:54 | 11. Wedding Song
3:52 | 12. Subway (NOLA demo)
2:53 | 13. Wedding Song (Acoustic)
5:00 | 14. Despair (Acoustic)
3:23 | 15. Mosquito (Live from YYY''s Bunker Studio)
Exact Audio Copy V1.0 beta 3 from 29. August 2011

EAC extraction logfile from 17. April 2013, 18:58

Yeah Yeah Yeahs / Mosquito (Deluxe Edition)

Used drive : PLEXTOR DVDR PX-760A Adapter: 3 ID: 0

Read mode : SecureUtilize accurate stream : YesDefeat audio cache : YesMake use of C2 pointers : No

Read offset correction : 30Overread into Lead-In and Lead-Out : YesFill up missing offset samples with silence : YesDelete leading and trailing silent blocks : NoNull samples used in CRC calculations : YesUsed interface : Native Win32 interface for Win NT & 2000Gap handling : Appended to previous track

Used output format : User Defined EncoderSelected bitrate : 1024 kBit/sQuality : HighAdd ID3 tag : NoCommand line compressor : C:\Program Files (x86)\Exact Audio Copy\Flac\flac.exeAdditional command line options : -8 -V -T "ARTIST=%artist%" -T "TITLE=%title%" -T "ALBUM=%albumtitle%" -T "DATE=%year%" -T "TRACKNUMBER=%tracknr%" -T "GENRE=%genre%" -T "PERFORMER=%albuminterpret%" -T "COMPOSER=%composer%" %haslyrics%--tag-from-file=LYRICS="%lyricsfile%"%haslyrics% -T "ALBUMARTIST=%albumartist%" -T "ALBUM ARTIST=%albumartist%" -T "DISCNUMBER=%cdnumber%" -T "TOTALDISCS=%totalcds%" -T "TOTALTRACKS=%numtracks%" -T "COMMENT=%comment%" %source% -o %dest%

TOC of the extracted CD

Track | Start | Length | Start sector | End sector --------------------------------------------------------- 1 | 0:00.00 | 3:50.44 | 0 | 17293 2 | 3:50.44 | 5:16.49 | 17294 | 41042 3 | 9:07.18 | 2:59.50 | 41043 | 54517 4 | 12:06.68 | 4:18.35 | 54518 | 73902 5 | 16:25.28 | 4:06.17 | 73903 | 92369 6 | 20:31.45 | 5:03.30 | 92370 | 115124 7 | 25:35.00 | 2:54.46 | 115125 | 128220 8 | 28:29.46 | 5:16.59 | 128221 | 151979 9 | 33:46.30 | 4:07.00 | 151980 | 170504 10 | 37:53.30 | 4:48.72 | 170505 | 192176 11 | 42:42.27 | 4:58.52 | 192177 | 214578 12 | 47:41.04 | 3:54.25 | 214579 | 232153 13 | 51:35.29 | 2:53.69 | 232154 | 245197 14 | 54:29.23 | 5:00.19 | 245198 | 267716 15 | 59:29.42 | 3:24.05 | 267717 | 283021

Track 1

Filename C:\EACRips\01 Sacrilege.wav

Pre-gap length 0:00:02.00

Peak level 100.0 % Extraction speed 2.1 X Track quality 100.0 % Test CRC 26001783 Copy CRC 26001783 Track not present in AccurateRip database Copy OK

Track 2

Filename C:\EACRips\02 Subway.wav

Peak level 98.7 % Extraction speed 2.2 X Track quality 100.0 % Test CRC F2FF1E9C Copy CRC F2FF1E9C Track not present in AccurateRip database Copy OK

Track 3

Filename C:\EACRips\03 Mosquito.wav

Peak level 100.0 % Extraction speed 2.0 X Track quality 100.0 % Test CRC 64977587 Copy CRC 64977587 Track not present in AccurateRip database Copy OK

Track 4

Filename C:\EACRips\04 Under The Earth.wav

Peak level 100.0 % Extraction speed 2.2 X Track quality 100.0 % Test CRC 09542AD7 Copy CRC 09542AD7 Track not present in AccurateRip database Copy OK

Track 5

Filename C:\EACRips\05 Slave.wav

Peak level 100.0 % Extraction speed 2.2 X Track quality 100.0 % Test CRC A294B7A4 Copy CRC A294B7A4 Track not present in AccurateRip database Copy OK

Track 6

Filename C:\EACRips\06 These Paths.wav

Peak level 100.0 % Extraction speed 2.2 X Track quality 100.0 % Test CRC 368D5964 Copy CRC 368D5964 Track not present in AccurateRip database Copy OK

Track 7

Filename C:\EACRips\07 Area 52.wav

Peak level 100.0 % Extraction speed 1.3 X Track quality 99.9 % Test CRC 7F3C0788 Copy CRC 7F3C0788 Track not present in AccurateRip database Copy OK

Track 8

Filename C:\EACRips\08 Buried Alive (featuring Dr. Octagon).wav

Peak level 100.0 % Extraction speed 2.2 X Track quality 100.0 % Test CRC 32406591 Copy CRC 32406591 Track not present in AccurateRip database Copy OK

Track 9

Filename C:\EACRips\09 Always.wav

Peak level 98.6 % Extraction speed 1.5 X Track quality 99.9 % Test CRC 7D8E74EA Copy CRC 7D8E74EA Track not present in AccurateRip database Copy OK

Track 10

Filename C:\EACRips\10 Despair.wav

Peak level 100.0 % Extraction speed 2.2 X Track quality 100.0 % Test CRC 0D8B7D90 Copy CRC 0D8B7D90 Track not present in AccurateRip database Copy OK

Track 11

Filename C:\EACRips\11 Wedding Song.wav

Peak level 100.0 % Extraction speed 2.2 X Track quality 100.0 % Test CRC B67FAC4A Copy CRC B67FAC4A Track not present in AccurateRip database Copy OK

Track 12

Filename C:\EACRips\12 Subway (NOLA Demo).wav

Pre-gap length 0:00:01.90

Peak level 97.7 % Extraction speed 2.1 X Track quality 100.0 % Test CRC E0D6637E Copy CRC E0D6637E Track not present in AccurateRip database Copy OK

Track 13

Filename C:\EACRips\13 Wedding Song (Acoustic).wav

Pre-gap length 0:00:01.93

Peak level 97.7 % Extraction speed 1.3 X Track quality 99.9 % Test CRC 3C6C945C Copy CRC 3C6C945C Track not present in AccurateRip database Copy OK

Track 14

Filename C:\EACRips\14 Despair (Acoustic).wav

Peak level 97.7 % Extraction speed 2.2 X Track quality 100.0 % Test CRC C8B4F07D Copy CRC C8B4F07D Track not present in AccurateRip database Copy OK

Track 15

Filename C:\EACRips\15 Mosquito (Live From Area 52).wav

Peak level 98.5 % Extraction speed 2.4 X Track quality 100.0 % Test CRC 348BA4DF Copy CRC 348BA4DF Track not present in AccurateRip database Copy OK

None of the tracks are present in the AccurateRip database

No errors occurred

End of status report

---- CUETools DB Plugin V2.1.3

[CTDB TOCID: h4tb9dSGvQBXA7v6ZDTio5YeTq4-] found, Submit result: h4tb9dSGvQBXA7v6ZDTio5YeTq4- has been confirmed[3a0a89cb] (4/4) Accurately ripped

==== Log checksum DDAE5593AE66224C2387789A90CB2A857D9BCF90198F5EFE5BA1250435A0B1EE ====
REM GENRE AlternativeREM DATE 2013REM DISCID D70EBD0FREM COMMENT "ExactAudioCopy v1.0b3"CATALOG 0602537293100PERFORMER "Yeah Yeah Yeahs"TITLE "Mosquito (Deluxe Edition)"FILE "01 Sacrilege.wav" WAVE TRACK 01 AUDIO TITLE "Sacrilege" PERFORMER "Yeah Yeah Yeahs" ISRC USUM71301684 INDEX 01 00:00:00FILE "02 Subway.wav" WAVE TRACK 02 AUDIO TITLE "Subway" PERFORMER "Yeah Yeah Yeahs" ISRC USUM71301689 INDEX 01 00:00:00FILE "03 Mosquito.wav" WAVE TRACK 03 AUDIO TITLE "Mosquito" PERFORMER "Yeah Yeah Yeahs" ISRC USUM71301707 INDEX 01 00:00:00FILE "04 Under The Earth.wav" WAVE TRACK 04 AUDIO TITLE "Under The Earth" PERFORMER "Yeah Yeah Yeahs" ISRC USUM71301690 INDEX 01 00:00:00FILE "05 Slave.wav" WAVE TRACK 05 AUDIO TITLE "Slave" PERFORMER "Yeah Yeah Yeahs" ISRC USUM71301691 INDEX 01 00:00:00FILE "06 These Paths.wav" WAVE TRACK 06 AUDIO TITLE "These Paths" PERFORMER "Yeah Yeah Yeahs" ISRC USUM71301692 INDEX 01 00:00:00FILE "07 Area 52.wav" WAVE TRACK 07 AUDIO TITLE "Area 52" PERFORMER "Yeah Yeah Yeahs" ISRC USUM71301694 INDEX 01 00:00:00FILE "08 Buried Alive (featuring Dr. Octagon).wav" WAVE TRACK 08 AUDIO TITLE "Buried Alive (featuring Dr. Octagon)" PERFORMER "Yeah Yeah Yeahs" ISRC USUM71301696 INDEX 01 00:00:00FILE "09 Always.wav" WAVE TRACK 09 AUDIO TITLE "Always" PERFORMER "Yeah Yeah Yeahs" ISRC USUM71301703 INDEX 01 00:00:00FILE "10 Despair.wav" WAVE TRACK 10 AUDIO TITLE "Despair" PERFORMER "Yeah Yeah Yeahs" ISRC USUM71301704 INDEX 01 00:00:00FILE "11 Wedding Song.wav" WAVE TRACK 11 AUDIO TITLE "Wedding Song" PERFORMER "Yeah Yeah Yeahs" ISRC USUM71301706 INDEX 01 00:00:00 TRACK 12 AUDIO TITLE "Subway (NOLA Demo)" PERFORMER "Yeah Yeah Yeahs" ISRC USUM71301886 INDEX 00 04:56:59FILE "12 Subway (NOLA Demo).wav" WAVE INDEX 01 00:00:00 TRACK 13 AUDIO TITLE "Wedding Song (Acoustic)" PERFORMER "Yeah Yeah Yeahs" ISRC USUM71301887 INDEX 00 03:52:30FILE "13 Wedding Song (Acoustic).wav" WAVE INDEX 01 00:00:00FILE "14 Despair (Acoustic).wav" WAVE TRACK 14 AUDIO TITLE "Despair (Acoustic)" PERFORMER "Yeah Yeah Yeahs" ISRC USUM71301888 INDEX 01 00:00:00FILE "15 Mosquito (Live From Area 52).wav" WAVE TRACK 15 AUDIO TITLE "Mosquito (Live From Area 52)" PERFORMER "Yeah Yeah Yeahs" ISRC USUM71301889 INDEX 01 00:00:00
Не забывайте говорить Спасибо. Не уходите с раздачи!   
Торрент: Зарегистрирован [10 июл 2018, 01:06]
Статус:
Проверен
 
.torrent скачан: 0 раз
Хэш: a1fbe65fb0d378b777bf553b3461bcf2fd617b62
Размер: 409.52 МБ (429 418 003 байт)
   Стать Автором раздачи
   
Ничто так не успокаивает, как инструктаж по технике безопасности.
Цитата
  • Похожие торренты
    Ответы
    Просмотры
    Последнее сообщение

Вернуться в Rock

Кто сейчас на конференции

Сейчас эту тему просматривают: нет зарегистрированных пользователей и гости: 1