12 обезьян / 12 Monkeys [S04] (2018) HDTVRip 720p | ColdFilm

 Статистика раздачи 
Размер: 12.47 ГБ   |  Зарегистрирован: 09 июл 2018, 01:44   |   .torrent скачан: 0 раз
Сидеров: 3  [ 0 байт/сек ]     Личеров: 0  [ 0 байт/сек ]  
  
Аватара пользователя
Главный редактор
Главный редактор
 
Раздал: 90.01 ТБ
Скачал: 3.78 ТБ
Ратио: 24.248
Сообщения: 281990
Стаж: 9 лет 2 месяца 24 дня
Откуда: Санкт-Петербург

Информация о фильме
Название: 12 обезьян
Оригинальное название: 12 Monkeys
Год выпуска: 2018
Режиссер: Дэвид Гроссман, Майкл Ваксман, Джон Бэдэм
В ролях: Аарон Стэнфорд, Аманда Шулл, Кирк Асеведо, Ной Бин, Демор Барнс, Рамон Де Окампо, Бенджамин Меранда, Алисен Даун, Барбара Зукова, Эмили Хэмпши

О фильме:
Новый фантастический сериал, созданный по мотивам оригинального фильма 1995 года. Коул является уголовником из постапокалиптического будущего. Его осудили за дерзкое поведение и неподчинение властям. В конце девяностых некий вирус уничтожил почти всю популяцию людей, а те, кому удалось выжить, укрылись под землей. В то время ученые уже изобрели технологию путешествия во времени, и Коул стал «морской свинкой», на которой эту технологию решили испытать. Он должен добыть для изучения образцы вируса из прошлого и за это получит полное прощение за все содеянное.


Страна: США
Студия: Atlas Entertainment
Продолжительность: 11 x ~ 00:42:00
Перевод: Любительский многоголосый закадровый [ColdFilm]

Файл
Кодек: x264 (AVC)
Качество: HDTVRip 720p
Видео: 3500 Кбит/с, 1280x720, 29.970 fps
Аудио: Русский (MP3, 2 ch, 125 Кбит/с)

General
Unique ID : 198076687710229502116788139518669241199 (0x95042EB2B96E6884842D129807CA3B6F)
Complete name : 12.Monkeys.S04E01.720p.ColdFilm.mkv
Format : Matroska
Format version : Version 2
File size : 1.11 GiB
Duration : 42 min 42 s
Overall bit rate : 3 736 kb/s
Encoded date : UTC 2018-06-16 02:58:42 / UTC 2017-11-20 18:25:40
Writing application : mkvmerge v3.3.0 ('Language') built on Mar 24 2010 14:59:24
Writing library : libebml v0.8.0 + libmatroska v0.9.0 / Lavf54.63.104

Video
ID : 1
Format : AVC
Format/Info : Advanced Video Codec
Format profile : Main@L3.1
Format settings : CABAC / 1 Ref Frames
Format settings, CABAC : Yes
Format settings, ReFrames : 1 frame
Codec ID : V_MPEG4/ISO/AVC
Duration : 42 min 42 s
Bit rate : 3 500 kb/s
Width : 1 280 pixels
Height : 720 pixels
Display aspect ratio : 16:9
Frame rate mode : Constant
Frame rate : 25.000 FPS
Color space : YUV
Chroma subsampling : 4:2:0
Bit depth : 8 bits
Scan type : Progressive
Bits/(Pixel*Frame) : 0.152
Stream size : 1.04 GiB (93%)
Writing library : x264 core 129
Default : No
Forced : No

Audio
ID : 2
Format : AC-3
Format/Info : Audio Coding 3
Codec ID : A_AC3
Duration : 42 min 42 s
Bit rate mode : Constant
Bit rate : 192 kb/s
Channel(s) : 2 channels
Channel positions : Front: L R
Sampling rate : 48.0 kHz
Frame rate : 31.250 FPS (1536 SPF)
Bit depth : 16 bits
Compression mode : Lossy
Stream size : 58.7 MiB (5%)
Service kind : Complete Main
Default : Yes
Forced : No


Релиз от:
Не забывайте говорить Спасибо. Не уходите с раздачи!   
Торрент: Зарегистрирован [09 июл 2018, 01:44]
Статус:
Проверен
 
.torrent скачан: 0 раз
Хэш: a0d473b6356d5c680c1517c379a493640b5dc7a8
Размер: 12.47 ГБ (13 384 342 154 байт)
   Стать Автором раздачи
   
Цитата
  • Похожие торренты
    Ответы
    Просмотры
    Последнее сообщение

Вернуться в 12 обезьян / 12 Monkeys

Кто сейчас на конференции

Сейчас эту тему просматривают: нет зарегистрированных пользователей и гости: 1