12 обезьян / 12 Monkeys [S02] (2016) WEB-DL 720p | OMSKBIRD

 Статистика раздачи 
Размер: 18.02 ГБ   |  Зарегистрирован: 20 июл 2016, 14:18   |   .torrent скачан: 73 раз
Сидеров: 4  [ 0 байт/сек ]     Личеров: 1  [ 0 байт/сек ]  
  
Аватара пользователя
Главный редактор
Главный редактор
 
Раздал: 90.01 ТБ
Скачал: 3.78 ТБ
Ратио: 24.248
Сообщения: 282030
Стаж: 9 лет 2 месяца 25 дней
Откуда: Санкт-Петербург

Информация о фильме
Название: 12 обезьян
Оригинальное название: 12 Monkeys
Год выхода: 2016
Жанр: фантастика, драма
Режиссер: Дэвид Гроссман, Майкл Ваксман, Джон Бэдэм
В ролях: Аарон Стэнфорд, Аманда Шулл, Кирк Асеведо, Ной Бин, Демор Барнс, Рамон Де Окампо, Алисен Даун, Барбара Зукова, Эмили Хэмпшир и др.

О фильме:
Коул - уголовник из постапокалиптического будущего. Его осудили за дерзкое поведение и неподчинение властям. В конце девяностых некий вирус уничтожил почти всю популяцию людей, а те, кому удалось выжить, укрылись под землей. В то время ученые уже изобрели технологию путешествия во времени, и Коул стал «морской свинкой», на которой эту технологию решили испытать. Он должен добыть для изучения образцы вируса из прошлого и за это получит полное прощение за все содеянное.




Страна: США
Продолжительность: ~ 44 мин. серия
Перевод: Любительский (многоголосый закадровый) | OMSKBIRD

Файл
Кодек: MPEG-4 AVC
Качество: WEB-DL 720p (13 серия HDTV)
Видео: AVC, 1280x720 (16:9), 23.976 fps, ~ 4000 kbps
Звук: Аудио rus: AC-3, 48 KHz, 6 ch, 384 kbps | OMSKBIRD records
Аудио eng: AC-3, 48 KHz, 6 ch, 384 kbps

Семпл

Присутствует реклама!



General
Unique ID : 229979615785035733001697751881240698449 (0xAD04767E3FBFCF6CA6A16D73E13A5E51)
Complete name : F:Мои ДокументыВидеоРАЗДАЧИБабезьян12 Monkeys S02 WEB-DL 720p (OMSKBIRD)12 Monkeys S02E01 WEB-DL 720p (OMSKBIRD).mkv
Format : Matroska
Format version : Version 2
File size : 1.42 GiB
Duration : 42mn 50s
Overall bit rate : 4 742 Kbps
Movie name : 12.Monkeys.S02E01.720p.WEB-DL.DD5.1.H264-RARBG
Encoded date : UTC 2016-04-20 11:44:23
Writing application : mkvmerge v4.0.0 ('The Stars were mine') сборка от Jun 6 2010 16:18:42
Writing library : libebml v1.0.0 + libmatroska v1.0.0

Video
ID : 1
Format : AVC
Format/Info : Advanced Video Codec
Format profile : High@L3.1
Format settings, CABAC : No
Format settings, ReFrames : 2 frames
Codec ID : V_MPEG4/ISO/AVC
Duration : 42mn 50s
Bit rate : 3 880 Kbps
Width : 1 280 pixels
Height : 720 pixels
Display aspect ratio : 16:9
Frame rate : 23.976 fps
Color space : YUV
Chroma subsampling : 4:2:0
Bit depth : 8 bits
Scan type : Progressive
Bits/(Pixel*Frame) : 0.176
Stream size : 1.16 GiB (82%)
Title : 12.Monkeys.S02E01.720p.WEB-DL.DD5.1.H264-RARBG
Language : English
Default : No
Forced : No
Color primaries : BT.709-5, BT.1361, IEC 61966-2-4, SMPTE RP177
Transfer characteristics : BT.709-5, BT.1361
Matrix coefficients : BT.709-5, BT.1361, IEC 61966-2-4 709, SMPTE RP177

Audio #1
ID : 2
Format : AC-3
Format/Info : Audio Coding 3
Mode extension : CM (complete main)
Format settings, Endianness : Big
Codec ID : A_AC3
Duration : 42mn 50s
Bit rate mode : Constant
Bit rate : 384 Kbps
Channel(s) : 6 channels
Channel positions : Front: L C R, Side: L R, LFE
Sampling rate : 48.0 KHz
Bit depth : 16 bits
Compression mode : Lossy
Stream size : 118 MiB (8%)
Language : Russian
Default : Yes
Forced : No

Audio #2
ID : 3
Format : AC-3
Format/Info : Audio Coding 3
Mode extension : CM (complete main)
Format settings, Endianness : Big
Codec ID : A_AC3
Duration : 42mn 50s
Bit rate mode : Constant
Bit rate : 384 Kbps
Channel(s) : 6 channels
Channel positions : Front: L C R, Side: L R, LFE
Sampling rate : 48.0 KHz
Bit depth : 16 bits
Compression mode : Lossy
Stream size : 118 MiB (8%)
Title : 12.Monkeys.S02E01.720p.WEB-DL.DD5.1.H264-RARBG
Language : English
Default : No
Forced : No
Перевод • Никита Коваль
Роли озвучивали • Павел Ярощик, Андрей Астров, Алена Соколова
Звукорежиссер • Павел Квентов
Постер • Ксения Просветова
Релиз подготовил • Gater
Не забывайте говорить Спасибо. Не уходите с раздачи!   
Торрент: Зарегистрирован [20 июл 2016, 14:18]
Статус:
Проверен
 
.torrent скачан: 73 раз
Хэш: 6b7e4eb896c5c3e0531546a609f376aee0c17b1d
Размер: 18.02 ГБ (19 353 112 106 байт)
   Стать Автором раздачи
   
Цитата

Вернуться в 12 обезьян / 12 Monkeys

Кто сейчас на конференции

Сейчас эту тему просматривают: нет зарегистрированных пользователей и гости: 1