(Emocore, Post-hardcore, Glam Metal) Black Veil Brides - We Stitch These Wounds (Japanese Edition) - 2010, FLAC (image+.cue), lossless

 Статистика раздачи 
Размер: 324.79 МБ   |  Зарегистрирован: 08 июл 2018, 00:46   |   .torrent скачан: 0 раз
Сидеров: 1  [ 0 байт/сек ]     Личеров: 4  [ 0 байт/сек ]  
  
Аватара пользователя
 
Раздал: 2.75 ТБ
Скачал: 89.62 ГБ
Ратио: 31.394
Сообщения: 222824
Стаж: 3 года 4 месяца 14 дней

Black Veil Brides / We Stitch These Wounds (Japanese Edition)


Жанр: Emocore, Post-hardcore, Glam Metal
Страна-производитель диска: Japan
Год издания: 2010
Издатель (лейбл): Victor Entertainment Inc.
Номер по каталогу: VICP-64896
Страна: U.S.A.
Аудиокодек: FLAC (*.flac)
Тип рипа: image+.cue
Битрейт аудио: lossless
Продолжительность: 47:35
Источник (релизер): CD Из Личной Коллекции
Наличие сканов в содержимом раздачи: нет
Треклист:
01. The Outcasts [Call To Arms]
02. We Stitch These Wounds
03. Beautiful Remains
04. Children Surrender
05. Perfect Weapon
06. Knives And Pens
07. The Mortician''''s Daughter
08. All Your Hate
09. Heaven''''s Calling
10. Never Give In
11. Sweet Blasphemy
12. Carolyn
13. Knives And Pens (Acoustic)
Exact Audio Copy V1.0 beta 3 from 29. August 2011

EAC extraction logfile from 25. July 2013, 15:06

Black Veil Brides / We Stitch These Wounds (Japanese Edition)

Used drive : HP DVD Writer 1170d Adapter: 2 ID: 0

Read mode : SecureUtilize accurate stream : YesDefeat audio cache : YesMake use of C2 pointers : No

Read offset correction : 6Overread into Lead-In and Lead-Out : NoFill up missing offset samples with silence : YesDelete leading and trailing silent blocks : NoNull samples used in CRC calculations : YesUsed interface : Native Win32 interface for Win NT & 2000

Used output format : User Defined EncoderSelected bitrate : 1024 kBit/sQuality : HighAdd ID3 tag : NoCommand line compressor : C:\Program Files\Exact Audio Copy\FLAC\FLAC.EXEAdditional command line options : -V -8 -T "Date=%year%" -T "Genre=%genre%" -T"COMMENT=Ripped by Ungern666" -8 -V %source%

TOC of the extracted CD

Track | Start | Length | Start sector | End sector --------------------------------------------------------- 1 | 0:00.00 | 0:31.00 | 0 | 2324 2 | 0:31.00 | 3:59.14 | 2325 | 20263 3 | 4:30.14 | 4:13.55 | 20264 | 39293 4 | 8:43.69 | 3:11.60 | 39294 | 53678 5 | 11:55.54 | 4:07.50 | 53679 | 72253 6 | 16:03.29 | 4:15.60 | 72254 | 91438 7 | 20:19.14 | 4:11.62 | 91439 | 110325 8 | 24:31.01 | 3:10.30 | 110326 | 124605 9 | 27:41.31 | 3:19.33 | 124606 | 139563 10 | 31:00.64 | 3:09.13 | 139564 | 153751 11 | 34:10.02 | 3:56.34 | 153752 | 171485 12 | 38:06.36 | 4:37.32 | 171486 | 192292 13 | 42:43.68 | 4:51.59 | 192293 | 214176

Range status and errors

Selected range

Filename C:\EAC\Ungern666\Black Veil Brides - We Stitch These Wounds (Japanese Edition).wav

Peak level 100.0 % Extraction speed 4.9 X Range quality 100.0 % Test CRC CCB20D8A Copy CRC CCB20D8A Copy OK

No errors occurred

AccurateRip summary

Track 1 not present in databaseTrack 2 not present in databaseTrack 3 not present in databaseTrack 4 not present in databaseTrack 5 not present in databaseTrack 6 not present in databaseTrack 7 not present in databaseTrack 8 not present in databaseTrack 9 not present in databaseTrack 10 not present in databaseTrack 11 not present in databaseTrack 12 not present in databaseTrack 13 not present in database

None of the tracks are present in the AccurateRip database

End of status report

---- CUETools DB Plugin V2.1.5

[CTDB TOCID: rCvzkNUlASc_Bii5bJ.en_biK8U-] disk not present in databaseSubmit result: rCvzkNUlASc_Bii5bJ.en_biK8U- has been uploaded

==== Log checksum 77693C9FE4987C0772C59AFF286B00FF3933D5D052F7B05C00F920ED8DDEF0C1 ====
Не забывайте говорить Спасибо. Не уходите с раздачи!   
Торрент: Зарегистрирован [08 июл 2018, 00:46]
Статус:
Проверен
 
.torrent скачан: 0 раз
Хэш: fbf047a6b34069751243e301ff9a49f6b3f6e871
Размер: 324.79 МБ (340 566 448 байт)
   Стать Автором раздачи
   
Ничто так не успокаивает, как инструктаж по технике безопасности.
Цитата
Случайная аватара. Подставляется автоматически при отсутствии установленной пользователем аватары. Рекомендуется менять на свою или жить с Лоховской Аватаркой ))).
Раздал: 50 ГБ
Скачал: 0 байт
Ратио: Seed.
Сообщения: 1
Стаж: 11 месяцев 28 дней
СообщениеДобавлено: 20 ноя 2018, 23:56
Странник писал(а):

Re: (Emocore, Post-hardcore, Glam Metal) Black Veil Brides - We Stitch These Wounds (Japanese Edition) - 2010, FLAC (image+.cue), lossless

раздай пожалуйста,не качает
Цитата
Аватара пользователя
Главный редактор
Главный редактор
Раздал: 90.01 ТБ
Скачал: 3.78 ТБ
Ратио: 24.248
Сообщения: 254682
Стаж: 9 лет 22 дня
Откуда: Санкт-Петербург
СообщениеДобавлено: 21 ноя 2018, 00:11
Сиды есть, но не всегда. Но есть........
Немного терпения и вы получите желаемое ;)
Цитата
Случайная аватара. Подставляется автоматически при отсутствии установленной пользователем аватары. Рекомендуется менять на свою или жить с Лоховской Аватаркой ))).
Раздал: 50 ГБ
Скачал: 0 байт
Ратио: Seed.
Сообщения: 3
Стаж: 20 дней
СообщениеДобавлено: 27 окт 2019, 17:49
нет торрент файла как скачать раздачу?
Цитата
Аватара пользователя
Раздал: 6.64 ТБ
Скачал: 597.93 ГБ
Ратио: 11.363
Сообщения: 246793
Стаж: 2 года 7 месяцев 25 дней
СообщениеДобавлено: 27 окт 2019, 18:01
andrey333 писал(а):

нет торрент файла как скачать раздачу?


Если у Вас еще не установлен MediaGet, то установите и с его помощью будете скачивать торренты. Все инструкции находятся на главной
Цитата
Случайная аватара. Подставляется автоматически при отсутствии установленной пользователем аватары. Рекомендуется менять на свою или жить с Лоховской Аватаркой ))).
Раздал: 50 ГБ
Скачал: 0 байт
Ратио: Seed.
Сообщения: 3
Стаж: 20 дней
СообщениеДобавлено: 27 окт 2019, 18:56
раздайте пожалуйста нет скорости
Цитата
Аватара пользователя
Главный редактор
Главный редактор
Раздал: 90.01 ТБ
Скачал: 3.78 ТБ
Ратио: 24.248
Сообщения: 254682
Стаж: 9 лет 22 дня
Откуда: Санкт-Петербург
СообщениеДобавлено: 27 окт 2019, 20:57
Альтернатива : https://vanila.org/viewtopic.php?t=1417568
Сиды есть
Цитата
Случайная аватара. Подставляется автоматически при отсутствии установленной пользователем аватары. Рекомендуется менять на свою или жить с Лоховской Аватаркой ))).
Раздал: 50 ГБ
Скачал: 0 байт
Ратио: Seed.
Сообщения: 3
Стаж: 20 дней
СообщениеДобавлено: 27 окт 2019, 21:32
i926 писал(а):

Альтернатива : https://vanila.org/viewtopic.php?t=1417568
Сиды есть

мне япония нужна)
Цитата

Вернуться в Rock

Кто сейчас на конференции

Сейчас эту тему просматривают: нет зарегистрированных пользователей и гости: 1