Пространство / The Expanse [S03] (2018) WEBRip 720p | OmskBird

 Статистика раздачи 
Размер: 12.47 ГБ   |  Зарегистрирован: 29 июн 2018, 16:55   |   .torrent скачан: 32 раз
Сидеров: 0  [ 0 байт/сек ]     Личеров: 0  [ 0 байт/сек ]  
  
Аватара пользователя
Главный редактор
Главный редактор
 
Раздал: 60.38 ТБ
Скачал: 3.58 ТБ
Ратио: 17.295
Сообщения: 204718
Стаж: 8 лет 5 месяцев
Откуда: Санкт-Петербург

Информация о фильме
Название: Пространство
Оригинальное название: The Expanse
Год выхода: 2018
Жанр: Фантастика, триллер, драма, детектив, экранизация
Режиссер: Роберт Либерман, Терри МакДонаф, Джефф Вулнаф
В ролях: Томас Джейн, Стивен Стрейт, Кэс Анвар, Доминик Типпер, Уэс Чэтэм, Шохре Агдашлу, Афина Карканис, Чад Л. Коулмэн, Дрю Кэрримор, Илайс Туфексис, Паоло Костанзо, Флоренс Ванида Фэйвр, Джей Эрнандес, Джейн Моффат, Шон Дойл, Джаред Харрис, Россиф Сазерленд, Джонатан Бэнкс

О фильме:
Через двести лет от дня сегодняшнего некий сыщик, привыкший всё доводить до конца при любых обстоятельствах, в рамках расследования дела об исчезновении молодой женщины оказывается на борту звездолета, капитан которого решает помочь детективу в его непростом деле. Величайший заговор в истории человечества гарантируется, как и его непременное раскрытие. По мотивам романа «Пробуждение Левиафана» Джеймса Кори.


Страна: США, Alcon Entertainment, Sean Daniel Company
Продолжительность: ~ 00:45:00 серия
Перевод: Любительский (многоголосый закадровый) | OMSKBIRD records

Файл
Кодек: MPEG-4 AVC/х.264
Качество: WEBRip 720p
Видео: 1280x720 (16:9), 23.976 fps, ~2875 kbps, 0.130 bit/pixel
Звук:
Аудио rus: AC3, 48 kHz, 2 ch, 192 Kbps | OmskBird
Субтитры: отсутствуют
Реклама: присутствует
Семпл

General
Unique ID : 147648977847212676007201071811674335644 (0x6F1428A51CB5CB74B8B2F7F3F36D699C)
Complete name : G:The.Expanse.S03.720p.WEBRip.OmskBirdThe.Expanse.S03E01.720p.WEBRip.OmskBird.mkv
Format : Matroska
Format version : Version 4 / Version 2
File size : 990 MiB
Duration : 44mn 14s
Overall bit rate : 3 129 Kbps
Encoded date : UTC 2018-04-13 06:15:43
Writing application : mkvmerge v21.0.0 ('Tardigrades Will Inherit The Earth') 64-bit
Writing library : libebml v1.3.5 + libmatroska v1.4.8
Cover : Yes
Attachments : small_cover.jpg / small_cover_land.jpg / cover.jpg / cover_land.jpg

Video
ID : 1
Format : AVC
Format/Info : Advanced Video Codec
Format profile : Main@L3.2
Format settings, CABAC : Yes
Format settings, ReFrames : 3 frames
Codec ID : V_MPEG4/ISO/AVC
Duration : 44mn 14s
Bit rate : 2 875 Kbps
Width : 1 280 pixels
Height : 720 pixels
Display aspect ratio : 16:9
Frame rate mode : Constant
Frame rate : 23.976 (24000/1001) fps
Standard : PAL
Color space : YUV
Chroma subsampling : 4:2:0
Bit depth : 8 bits
Scan type : Progressive
Bits/(Pixel*Frame) : 0.130
Stream size : 910 MiB (92%)
Language : English
Default : Yes
Forced : No
Color range : Limited
Color primaries : BT.709
Transfer characteristics : BT.709
Matrix coefficients : BT.709

Audio
ID : 2
Format : AC-3
Format/Info : Audio Coding 3
Mode extension : CM (complete main)
Format settings, Endianness : Big
Codec ID : A_AC3
Duration : 44mn 14s
Bit rate mode : Constant
Bit rate : 192 Kbps
Channel(s) : 2 channels
Channel positions : Front: L R
Sampling rate : 48.0 KHz
Frame rate : 31.250 fps (1536 spf)
Compression mode : Lossy
Stream size : 60.8 MiB (6%)
Title : OmskBird
Language : Russian
Default : Yes
Forced : No


[color=brown]
Внимание! Раздача ведётся путём добавления новых серий; при каждом добавлении создётся новый торрент. Чтобы начать докачку новой серии, пользователям необходимо сделать следующее:
Остановить скачивание.
Удалить старый торрент у себя из клиента (старые серии удалять не надо).
Скачать новый торрент и запустить его у себя в клиенте вместо старого, при этом указать клиенту путь в старую папку куда и должно происходить скачивание новых серий.
Ваш клиент при этом должен произвести хеширование (проверку) старой папки (если не производит сам - помогите ему сделать это), и будет докачивать только те серии которых у вас ещё нет. Старые серии при этом не удаляются, а продолжают раздаваться!
Eсли вы уже удалили старые серии, то предотвратить повторную закачку старых серий можно, отжав галочку в соответсвующих местах при запуске нового торрента. По возможности, желательно не удалять старые серии как можно дольше чтобы релизёр не столько продолжал раздавать старые серии, а смог сконцентрироваться на новых.


Релиз от: OmskBird
Не забывайте говорить Спасибо. Не уходите с раздачи!   
Торрент: Зарегистрирован [29 июн 2018, 16:55] Для скачивания .torrent
необходима регистрация
Или скачать с помощью
MediaGet
Статус:
Проверен
 
.torrent скачан: 32 раз
Хэш: b0046576678aba0ea21ae50fb1c7a62a8fc6b7ef
Размер: 12.47 ГБ (13 393 653 703 байт)
   Стать Автором раздачи
   
Цитата
  • Похожие торренты
    Ответы
    Просмотры
    Последнее сообщение

Вернуться в Пространство / The Expanse

Кто сейчас на конференции

Сейчас эту тему просматривают: нет зарегистрированных пользователей и гости: 1