Американцы / The Americans [S04] (2016) HDTV 720р | Sunshine Studio

 Статистика раздачи 
Размер: 13.64 ГБ   |  Зарегистрирован: 27 июн 2018, 00:39   |   .torrent скачан: 54 раз
Сидеров: 4  [ 0 байт/сек ]     Личеров: 4  [ 0 байт/сек ]  
  
Аватара пользователя
Главный редактор
Главный редактор
 
Раздал: 79.89 ТБ
Скачал: 3.74 ТБ
Ратио: 21.771
Сообщения: 210685
Стаж: 8 лет 8 месяцев
Откуда: Санкт-Петербург

Название: Американцы
Оригинальное название: The Americans
Год выхода: 2016
Жанр: боевик, политический детектив, триллер, драма, криминал

Режиссер:
Адам Аркин, Гэвин О`Коннор, Томас Шламми

В ролях:
Кери Расселл, Мэттью Рис, Ноа Эммерик, Холли Тейлор, Кейдрич Селлати, Аннет Махендру, Сьюзэн Миснер, Элисон Райт, Лев Горн, Ричард Томас, Марго Мартиндейл, Коста Ронин, Максимилиано Эрнандес, Дэн Флаэрти, Аарон Роман Уэй, Коттер Смит, Питер фон Берг, Энтони Аркин, Виталий Бенко, Эйми Карреро, Джон Кэрролл Линч, Тони Патано, Пегги Скотт, Маша Боровикова, Майкл Гэстон, Натали Голд, Ричард Кляйн и др.

Описание сериала:
История о сложном браке двух агентов КГБ, которые под видом американцев заселяются в пригород Вашингтона сразу после того, как президентом избирают Рейгана. Подставной брак Филлипа и Элизабет с каждым днем становится все более настоящим и эмоциональным, несмотря на эскалацию холодной войны и опасные отношения, которые они должны поддерживать с сетью шпионов и информаторов. Напряжение нарастает, когда появляется новый сосед Стэн, агент ФБР, который работает в контрразведке.

Страна: США
Производство: DreamWorks Television
Продолжительность: ~ 00:45:00
Перевод: Любительский (двухголосый) Sunshine Studio
Субтитры: Отсутствуют
Реклама: Присутствует



Файл
Формат: MKV
Качество: HDTV 720р

Видео: MPEG-4 AVC, ~ 2800 Кбит/с, 1280x720
Аудио: 48 kHz, MPEG Layer 3, 2 ch, ~192.00 kbps avg

Релиз группа:


Формат : Matroska
Версия формата : Version 2
Размер файла : 1,09 Гбайт
Продолжительность : 42 м.
Общий поток : 3711 Кбит/сек
Дата кодирования : UTC 2016-04-07 12:29:41
Программа кодирования : mkvmerge v4.9.1 ('Ich will') built on Sep 21 2011 17:48:11
Библиотека кодирования : libebml v1.2.1 + libmatroska v1.2.0

Видео
Идентификатор : 1
Формат : AVC
Формат/Информация : Advanced Video Codec
Профиль формата : High@L3
Параметр CABAC формата : Нет
Параметр ReFrames формата : 1 кадр
Режим смешивания : Header stripping
Идентификатор кодека : V_MPEG4/ISO/AVC
Продолжительность : 42 м.
Битрейт : 3500 Кбит/сек
Ширина : 1280 пикселей
Высота : 720 пикселей
Соотношение сторон : 16:9
Режим частоты кадров : Постоянный
Частота кадров : 29,970 (29970/1000) кадров/сек
Цветовое пространство : YUV
Субдискретизация насыщенности : 4:2:0
Битовая глубина : 8 бит
Тип развёртки : Прогрессивная
Бит/(Пиксели*Кадры) : 0.127
Размер потока : 1,01 Гбайт (93%)
Библиотека кодирования : x264 core 80 r1378+57 6f6b50a
Настройки программы : cabac=0 / ref=1 / deblock=1:0:0 / analyse=0x3:0x113 / me=hex / subme=7 / psy=1 / psy_rd=1.0:0.0 / mixed_ref=0 / me_range=16 / chroma_me=1 / trellis=0 / 8x8dct=1 / cqm=0 / deadzone=21,11 / fast_pskip=1 / chroma_qp_offset=-2 / threads=6 / sliced_threads=0 / nr=0 / decimate=1 / mbaff=0 / constrained_intra=0 / bframes=0 / wpredp=2 / keyint=250 / keyint_min=25 / scenecut=40 / rc_lookahead=40 / rc=abr / mbtree=1 / bitrate=3500 / ratetol=1.0 / qcomp=0.60 / qpmin=10 / qpmax=51 / qpstep=4 / ip_ratio=1.40 / aq=1:1.00
Default : Да
Forced : Нет

Аудио
Идентификатор : 2
Формат : AC-3
Формат/Информация : Audio Coding 3
Расширение режима : CM (complete main)
Параметр Endianness формата : Big
Режим смешивания : Header stripping
Идентификатор кодека : A_AC3
Продолжительность : 42 м.
Вид битрейта : Постоянный
Битрейт : 192 Кбит/сек
Каналы : 2 канала
Расположение каналов : Front: L R
Частота : 48,0 КГц
Частота кадров : 31,250 кадров/сек (1536 spf)
Метод сжатия : С потерями
Размер потока : 57,7 Мбайт (5%)
Default : Да
Forced : Нет
Не забывайте говорить Спасибо. Не уходите с раздачи!   
Торрент: Зарегистрирован [27 июн 2018, 00:39]
Статус:
Проверен
 
.torrent скачан: 54 раз
Хэш: 8f48f179c055fe0d867d5be80f9812c886b0f931
Размер: 13.64 ГБ (14 643 968 190 байт)
   Стать Автором раздачи
   
Цитата
  • Похожие торренты
    Ответы
    Просмотры
    Последнее сообщение

Вернуться в Американцы / The Americans

Кто сейчас на конференции

Сейчас эту тему просматривают: нет зарегистрированных пользователей и гости: 1