Американцы / The Americans [S01] (2013) BDRip | Кубик в Кубе, NewStudio

 Статистика раздачи 
Размер: 14.06 ГБ   |  Зарегистрирован: 27 июн 2018, 00:38   |   .torrent скачан: 2269 раз
Сидеров: 8  [ 0 байт/сек ]     Личеров: 2  [ 0 байт/сек ]  
  
Аватара пользователя
Главный редактор
Главный редактор
 
Раздал: 79.9 ТБ
Скачал: 3.74 ТБ
Ратио: 21.772
Сообщения: 210685
Стаж: 8 лет 8 месяцев
Откуда: Санкт-Петербург

Информация о фильме
Название: Американцы
Оригинальное название: The Americans
Год выхода: 2013
Жанр: драма, криминал
Режиссер: Адам Аркин, Гэвин О`Коннор, Томас Шламми
В ролях: Кери Расселл, Мэттью Рис, Ноа Эммерик, Холли Тейлор, Кейдрич Селлати, Аннет Махендру, Сьюзэн Миснер, Элисон Райт, Лев Горн, Ричард Томас, Марго Мартиндейл, Коста Ронин, Максимилиано Эрнандес, Дэн Флаэрти, Аарон Роман Уэй, Коттер Смит, Питер фон Берг, Энтони Аркин, Виталий Бенко, Эйми Карреро, Джон Кэрролл Линч, Тони Патано, Пегги Скотт, Маша Боровикова, Майкл Гэстон, Натали Голд, Ричард Кляйн

О фильме:
История о сложном браке двух агентов КГБ, которые под видом американцев заселяются в пригород Вашингтона сразу после того, как президентом избирают Рейгана. Подставной брак Филлипа и Элизабет с каждым днем становится все более настоящим и эмоциональным, несмотря на эскалацию холодной войны и опасные отношения, которые они должны поддерживать с сетью шпионов и информаторов. Напряжение нарастает, когда появляется новый сосед Стэн, агент ФБР, который работает в контрразведке.



Страна: США
Студия: FX
Продолжительность: 00:45:00
Язык: Русский, Английский
Перевод: Профессиональный (Двухголосый, закадровый), Профессиональный (многоголосый, закадровый)

Файл
Формат: AVI
Кодек: XviD
Качество: BDRip
Видео: 720x400, 23.976 fps, 2100 kbps
Звук: Аудио кодек: AC3
Аудио Rus: 48 kHz, AC3, 6 ch, 384 kbps - Двухголосый закадровый, Кубик в Кубе
Аудио Rus: 48 kHz, AC3, 6 ch, 384 kbps - Многоголосый закадровый, NewStudio
Аудио Eng: 48 kHz, AC3, 6 ch, 384 kbps - Original

Релиз от:
Работа со звуком: messafan
Рип: ЛП

01. Пилот / Pilot
02. Часы / The Clock
03. Грегори / Gregory
04. Под контролем / In Control
05. Радиоразведка / Comint
06. Доверся мне / Trust Me
07. Долг и честь / Duty and Honor
08. Взаимно гарантированное уничтожение / Mutually Assured Destruction
09. Конспиративная явка / Safe House
10. Только ты / Only You
11. Тайная война / Covert War
12. Клятва / The Oath
13. Полковник / The Colonel
General
Format : AVI
Format/Info : Audio Video Interleave
File size : 1.61 GiB
Duration : 1h 9mn
Overall bit rate : 3 325 Kbps
Writing application : VirtualDubMod 1.5.10.2 (build 2540/release)
Writing library : VirtualDubMod build 2540/release

Video
ID : 0
Format : MPEG-4 Visual
Format profile : Advanced Simple@L5
Format settings, BVOP : 1
Format settings, QPel : No
Format settings, GMC : No warppoints
Format settings, Matrix : Default (MPEG)
Codec ID : XVID
Codec ID/Hint : XviD
Duration : 1h 9mn
Bit rate : 2 155 Kbps
Width : 720 pixels
Height : 400 pixels
Display aspect ratio : 16:9
Frame rate : 23.976 fps
Color space : YUV
Chroma subsampling : 4:2:0
Bit depth : 8 bits
Scan type : Progressive
Compression mode : Lossy
Bits/(Pixel*Frame) : 0.312
Stream size : 1.04 GiB (65%)
Writing library : XviD 65

Audio #1
ID : 1
Format : AC-3
Format/Info : Audio Coding 3
Mode extension : CM (complete main)
Format settings, Endianness : Big
Codec ID : 2000
Duration : 1h 9mn
Bit rate mode : Constant
Bit rate : 384 Kbps
Channel(s) : 6 channels
Channel positions : Front: L C R, Side: L R, LFE
Sampling rate : 48.0 KHz
Bit depth : 16 bits
Compression mode : Lossy
Stream size : 190 MiB (12%)
Alignment : Split accross interleaves
Interleave, duration : 42 ms (1.00 video frame)
Interleave, preload duration : 500 ms

Audio #2
ID : 2
Format : AC-3
Format/Info : Audio Coding 3
Mode extension : CM (complete main)
Format settings, Endianness : Big
Codec ID : 2000
Duration : 1h 9mn
Bit rate mode : Constant
Bit rate : 384 Kbps
Channel(s) : 6 channels
Channel positions : Front: L C R, Side: L R, LFE
Sampling rate : 48.0 KHz
Bit depth : 16 bits
Compression mode : Lossy
Stream size : 190 MiB (12%)
Alignment : Split accross interleaves
Interleave, duration : 42 ms (1.00 video frame)
Interleave, preload duration : 500 ms

Audio #3
ID : 3
Format : AC-3
Format/Info : Audio Coding 3
Mode extension : CM (complete main)
Format settings, Endianness : Big
Codec ID : 2000
Duration : 1h 9mn
Bit rate mode : Constant
Bit rate : 384 Kbps
Channel(s) : 6 channels
Channel positions : Front: L C R, Side: L R, LFE
Sampling rate : 48.0 KHz
Bit depth : 16 bits
Compression mode : Lossy
Stream size : 190 MiB (12%)
Alignment : Split accross interleaves
Interleave, duration : 42 ms (1.00 video frame)
Interleave, preload duration : 500 ms
Не забывайте говорить Спасибо. Не уходите с раздачи!   
Торрент: Зарегистрирован [27 июн 2018, 00:38]
Статус:
Проверен
 
.torrent скачан: 2269 раз
Хэш: 5d51196f125c0c4ec6d81bdc52d59cdf530c5703
Размер: 14.06 ГБ (15 095 472 128 байт)
   Стать Автором раздачи
   
Цитата
  • Похожие торренты
    Ответы
    Просмотры
    Последнее сообщение

Вернуться в Американцы / The Americans

Кто сейчас на конференции

Сейчас эту тему просматривают: нет зарегистрированных пользователей и гости: 1