Пространство / The Expanse / Сезон 1 / Серии 1-10 (10) (Терри МакДонаф) [2015, США, драма, боевик, WEB-DL 720p] MVO (AlexFilm)

 Статистика раздачи 
Размер: 14.46 ГБ   |  Зарегистрирован: 20 янв 2018, 21:04   |   .torrent скачан: 0 раз
Сидеров: 0  [ 0 байт/сек ]     Личеров: 0  [ 0 байт/сек ]  
  
Аватара пользователя
 
Раздал: 90.26 ГБ
Скачал: 15.93 ГБ
Ратио: 6.635
Сообщения: 6547
Стаж: 8 лет 4 месяца 25 дней



Пространство / The Expanse

1 сезон, 1-10 серии

Год выпуска: 2015
Страна: США
Жанр: фантастика, детектив
Продолжительность: ~44 мин
Озвучание: профессиональное многоголосое закадровое (AlexFilm)
Режиссёры: Терри МакДонаф, Джефф Вулнаф, Роберт Либерман
В ролях: Томас Джейн, Стивен Стрейт, Кэс Анвар, Доминик Типпер, Уэс Чэтэм, Шоре Агдашлу, Афина Карканис, Чад Л. Коулмэн, Флоренс Ванида Фэйвр, Дрю Кэрримор...
Описание: Через двести лет от дня сегодняшнего некий сыщик, привыкший всё доводить до конца при любых обстоятельствах, в рамках расследования дела об исчезновении молодой женщины оказывается на борту звездолета, капитан которого решает помочь детективу в его непростом деле. Величайший заговор в истории человечества гарантируется, как и его непременное раскрытие.
Релиз:
Перевод: Константин Кривоногов
Монтаж и сведение звука: Михаил Шорыгин
Роли озвучивали:Евгения Тихонова
Татьяна Манетина
Михаил Суслов
Владимир Курдов
Роман Сопко
[*]Константин Погодаев

Сэмпл: https://sendfile.su/1195963

Качество: WEB-DL 720p
Формат: MKV
Видео кодек: H.264
Аудио кодек: AC3
Видео: 1280x720, 23.976 fps, MPEG-4 AVC ~4300 kbps avg, 0.177 bit/pixel
Аудио Rus: 48 kHz, AC3 Dolby Digital, 3/2 (L,C,R,l,r) + LFE ch, ~384.00 kbps avg
Аудио Eng: 48 kHz, AC3 Dolby Digital, 3/2 (L,C,R,l,r) + LFE ch, ~384.00 kbps avg
Субтитры: нет
Формат : Matroska
Версия формата : Version 4 / Version 2
Размер файла : 1,49 Гбайт
Продолжительность : 44 м.
Общий поток : 4773 Кбит/сек
Название фильма : The Expanse 1x01 @ AlexFilm
Дата кодирования : UTC 2016-01-21 23:11:18
Программа кодирования : mkvmerge v7.1.0 ('Good Love') 64bit built on Jul 27 2014 13:06:55
Библиотека кодирования : libebml v1.3.0 + libmatroska v1.4.1
Видео
Идентификатор : 1
Формат : AVC
Формат/Информация : Advanced Video Codec
Профиль формата : High@L3.1
Параметр CABAC формата : Нет
Параметр ReFrames формата : 2 кадра
Идентификатор кодека : V_MPEG4/ISO/AVC
Продолжительность : 44 м.
Битрейт : 3910 Кбит/сек
Ширина : 1280 пикселей
Высота : 720 пикселей
Соотношение сторон : 16:9
Режим частоты кадров : Постоянный
Частота кадров : 23,976 кадра/сек
Цветовое пространство : YUV
Субдискретизация насыщенности : 4:2:0
Битовая глубина : 8 бит
Тип развёртки : Прогрессивная
Бит/(Пиксели*Кадры) : 0.177
Размер потока : 1,22 Гбайт (82%)
Язык : English
Default : Да
Forced : Нет
colour_range : Limited
Основные цвета : BT.709
Характеристики трансфера : BT.709
Коэффициенты матрицы : BT.709
Аудио #1
Идентификатор : 2
Формат : AC-3
Формат/Информация : Audio Coding 3
Расширение режима : CM (complete main)
Параметр Endianness формата : Big
Идентификатор кодека : A_AC3
Продолжительность : 44 м.
Вид битрейта : Постоянный
Битрейт : 384 Кбит/сек
Каналы : 6 каналов
Расположение каналов : Front: L C R, Side: L R, LFE
Частота : 48,0 КГц
Метод сжатия : С потерями
Размер потока : 123 Мбайт (8%)
Заголовок : DD5.1 AlexFilm
Язык : Russian
Default : Да
Forced : Нет
Аудио #2
Идентификатор : 3
Формат : AC-3
Формат/Информация : Audio Coding 3
Расширение режима : CM (complete main)
Параметр Endianness формата : Big
Идентификатор кодека : A_AC3
Продолжительность : 44 м.
Вид битрейта : Постоянный
Битрейт : 384 Кбит/сек
Каналы : 6 каналов
Расположение каналов : Front: L C R, Side: L R, LFE
Частота : 48,0 КГц
Метод сжатия : С потерями
Размер потока : 123 Мбайт (8%)
Заголовок : DD5.1 Original
Язык : English
Default : Нет
Forced : Нет
Внимание! Раздача ведётся путём добавления новых серий; при каждом добавлении создаётся новый торрент. Чтобы начать докачку новой серии, пользователям необходимо сделать следующее:
(1) остановить скачивание,
(2) удалить старый торрент у себя из клиента (старые серии удалять не надо),
(3) скачать новый торрент и запустить его у себя в клиенте вместо старого, при этом указать клиенту путь в старую папку куда и должно происходить скачивание новых серий.
Ваш клиент при этом должен произвести хеширование (проверку) старой папки (если не производит сам - помогите ему сделать это), и будет докачивать только те серии которых у вас ещё нет. Старые серии при этом не удаляются, а продолжают раздаваться!
Eсли вы уже удалили старые серии, то предотвратить повторную закачку старых серий можно, отжав галочку в соответствующих местах при запуске нового торрента. По возможности, желательно не удалять старые серии как можно дольше чтобы релизёр не столько продолжал раздавать старые серии, а смог сконцентрироваться на новых.


Не забывайте говорить Спасибо. Не уходите с раздачи!   
Торрент: Зарегистрирован [20 янв 2018, 21:04] Для скачивания .torrent
необходима регистрация
Или скачать с помощью
MediaGet
Статус:
Проверен
 
.torrent скачан: 0 раз
Хэш: 1f55b1d97921d954a56eea3c0e027e18602a1cc0
Размер: 14.46 ГБ (15 528 109 766 байт)
   Стать Автором раздачи
   
Цитата
  • Похожие торренты
    Ответы
    Просмотры
    Последнее сообщение

Вернуться в Пространство / The Expanse

Кто сейчас на конференции

Сейчас эту тему просматривают: нет зарегистрированных пользователей и гости: 1