Тик / The Tick / Сезон: 1 / Серии: 6 из 12 (Уолли Пфистер, Ромео Тироне, Шери Фоксон, Лев Л. Спиро) [2016-2017, США, Комедия, Боевик, Супергеройский, Приключения, WEBRip 1080p] MVO (Good People) + Original

 Статистика раздачи 
Размер: 8.02 ГБ   |  Зарегистрирован: 20 янв 2018, 21:00   |   .torrent скачан: 0 раз
Сидеров: 3  [ 0 байт/сек ]     Личеров: 1  [ 0 байт/сек ]  
  
Аватара пользователя
 
Раздал: 90.26 ГБ
Скачал: 15.93 ГБ
Ратио: 6.635
Сообщения: 6547
Стаж: 8 лет 4 месяца 25 дней

Тик / The Tick
Год выпуска: 2016-2017
Страна: США
Жанр: Комедия, Боевик, Супергеройский, Приключения
Продолжительность серии: 00:26:00
Перевод: Профессиональный (многоголосый закадровый) Good People
Режиссёр: Уолли Пфистер, Ромео Тироне, Шери Фоксон, Лев Л. Спиро
В ролях: Питер Серафинович, Гриффин Ньюман, Вэлори Керри, Брендан Хайнс, Яра Мартинес, Скотт Списер, Джеки Эрл Хейли
Описание: Тик — неуязвимый супергерой в костюме синего клеща, который прибывает в Город, чтобы помочь бороться с преступностью и раскрыть загадочную фигуру из подземного мира. Он начинает дружить с нервным и мягким молодым человеком по имени Артур, который становится его приятелем. Вместе они осознают, что давно считавшийся мертвым суперзлодей по кличке «Террор» и является тем самым загадочным человеком, терроризирующий Город. Остальные шесть эпизодов первого сезона будут выпущены 23 февраля 2018 года.
Сэмпл | Предыдущие и альтернативные раздачи
Качество: WEBRip 1080p
Контейнер: MKV
Видео: H.264 / 1920x800 (1 серия) 1920x960 (2-6 серии) / 23.976 fps / ~6500 kbps
Аудио 1: Русский / AC-3 / 48.0 kHz / 6 ch / 640 kbps
Аудио 2: Английский / E-AC-3 / 48.0 kHz / 6 ch / 640 kbps
Субтитры: Английские
Реклама: Отсутствует
01 - 18.08.2016 - Тик (The Tick)
02 - 25.08.2017 - Где мой разум? (Where's My Mind)
03 - 25.08.2017 - Секрет / Идентичность (Secret / Identity)
04 - 25.08.2017 - Незваные гости (Party Crashers)
05 - 25.08.2017 - Страх перед полетом (Fear of Flying)
06 - 25.08.2017 - Возвышение (Rising)
07 - 23.02.2018 -
08 - 23.02.2018 -
09 - 23.02.2018 -
10 - 23.02.2018 -
11 - 23.02.2018 -
12 - 23.02.2018 -
Код:
Код: Выделить всё
Общее
Уникальный идентификатор                 : 183480517298000634803037368621474781438 (0x8A090FEF753A8E2AA64D5C48E7AC18FE)
Полное имя                               : The.Tick.S01E02.1080p.GoodPeople.mkv
Формат                                   : Matroska
Версия формата                           : Version 4 / Version 2
Размер файла                             : 1,40 Гбайт
Продолжительность                        : 25 м. 57 с.
Общий поток                              : 7737 Кбит/сек
Дата кодирования                         : UTC 2017-12-05 13:22:29
Программа кодирования                    : mkvmerge v8.3.0 ('Over the Horizon') 64bit
Библиотека кодирования                   : libebml v1.3.1 + libmatroska v1.4.2
Обложка                                  : Yes
Attachments                              : cover.png
Видео
Идентификатор                            : 1
Формат                                   : AVC
Формат/Информация                        : Advanced Video Codec
Профиль формата                          : High@L4.1
Настройки формата                        : CABAC / 4 Ref Frames
Параметр CABAC формата                   : Да
Параметр RefFrames формата               : 4 кадра
Идентификатор кодека                     : V_MPEG4/ISO/AVC
Продолжительность                        : 25 м. 57 с.
Битрейт                                  : 6451 Кбит/сек
Ширина                                   : 1920 пикселей
Высота                                   : 960 пикселей
Соотношение сторон                       : 2,000
Режим частоты кадров                     : Постоянный
Частота кадров                           : 23,976 (24000/1001) кадра/сек
Цветовое пространство                    : YUV
Субдискретизация насыщенности            : 4:2:0
Битовая глубина                          : 8 бит
Тип развёртки                            : Прогрессивная
Бит/(Пиксели*Кадры)                      : 0.146
Размер потока                            : 1,17 Гбайт (83%)
Библиотека кодирования                   : x264 core 152 r2851 ba24899
Настройки программы                      : cabac=1 / ref=4 / deblock=1:-3:-3 / analyse=0x3:0x113 / me=umh / subme=8 / psy=1 / psy_rd=1.00:0.15 / mixed_ref=1 / me_range=16 / chroma_me=1 / trellis=2 / 8x8dct=1 / cqm=0 / deadzone=21,11 / fast_pskip=0 / chroma_qp_offset=-2 / threads=12 / lookahead_threads=2 / sliced_threads=0 / nr=0 / decimate=1 / interlaced=0 / bluray_compat=0 / constrained_intra=0 / bframes=3 / b_pyramid=2 / b_adapt=1 / b_bias=0 / direct=3 / weightb=1 / open_gop=0 / weightp=2 / keyint=240 / keyint_min=23 / scenecut=40 / intra_refresh=0 / rc_lookahead=50 / rc=crf / mbtree=1 / crf=17.0 / qcomp=0.60 / qpmin=0 / qpmax=69 / qpstep=4 / ip_ratio=1.40 / aq=3:0.80
Язык                                     : English
Default                                  : Да
Forced                                   : Нет
Аудио #1
Идентификатор                            : 2
Формат                                   : AC-3
Формат/Информация                        : Audio Coding 3
Идентификатор кодека                     : A_AC3
Продолжительность                        : 25 м. 57 с.
Вид битрейта                             : Постоянный
Битрейт                                  : 640 Кбит/сек
Каналы                                   : 6 каналов
Расположение каналов                     : Front: L C R, Side: L R, LFE
Частота                                  : 48,0 КГц
Частота кадров                           : 31,250 кадров/сек (1536 SPF)
Битовая глубина                          : 16 бит
Метод сжатия                             : С потерями
Размер потока                            : 119 Мбайт (8%)
Заголовок                                : Good People
Язык                                     : Russian
ServiceKind/String                       : Complete Main
Default                                  : Да
Forced                                   : Нет
Аудио #2
Идентификатор                            : 3
Формат                                   : E-AC-3
Формат/Информация                        : Enhanced Audio Coding 3
Идентификатор кодека                     : A_EAC3
Продолжительность                        : 25 м. 57 с.
Вид битрейта                             : Постоянный
Битрейт                                  : 640 Кбит/сек
Каналы                                   : 6 каналов
Расположение каналов                     : Front: L C R, Side: L R, LFE
Частота                                  : 48,0 КГц
Частота кадров                           : 187,500 кадров/сек (256 SPF)
Метод сжатия                             : С потерями
Размер потока                            : 119 Мбайт (8%)
Язык                                     : English
ServiceKind/String                       : Complete Main
Default                                  : Нет
Forced                                   : Нет
Текст
Идентификатор                            : 4
Формат                                   : UTF-8
Идентификатор кодека                     : S_TEXT/UTF8
Идентификатор кодека/Информация          : UTF-8 Plain Text
Продолжительность                        : 24 м. 15 с.
Битрейт                                  : 88 бит/сек
ElementCount                             : 549
Размер потока                            : 15,8 Кбайт (0%)
Язык                                     : English
Default                                  : Нет
Forced                                   : Нет
Меню
00:00:00.000                             : en:Amazon Original
00:00:05.000                             : en:The Tick faces Ms. Lint
00:03:01.000                             : en:Opening Credits
00:03:31.000                             : en:"Alive as a daisy"
00:04:10.000                             : en:Ms. Lint investigates Arthur's apartment
00:04:45.000                             : en:Dot can't concentrate on her game
00:05:51.000                             : en:Arthur steals a poncho
00:09:07.000                             : en:Ms. Lint answers to Ramses
00:11:15.000                             : en:Arthur doesn't want to be a superhero
00:12:03.000                             : en:Dot helps Stosh with a medical emergency
00:13:03.000                             : en:Arthur thinks he is losing his mind
00:18:49.000                             : en:Ms. Lint remembers The Terror
00:21:29.000                             : en:Arthur continues to avoid The Tick
00:22:38.000                             : en:Arthur faces Overkill
00:24:27.000                             : en:End Credits

Не забывайте говорить Спасибо. Не уходите с раздачи!   
Торрент: Зарегистрирован [20 янв 2018, 21:00] Для скачивания .torrent
необходима регистрация
Или скачать с помощью
MediaGet
Статус:
Проверен
 
.torrent скачан: 0 раз
Хэш: f061c2866bab5253952e7f79be0f1b706c0fe26f
Размер: 8.02 ГБ (8 609 662 859 байт)
   Стать Автором раздачи
   
Цитата
  • Похожие торренты
    Ответы
    Просмотры
    Последнее сообщение

Вернуться в Тик / The Tick

Кто сейчас на конференции

Сейчас эту тему просматривают: нет зарегистрированных пользователей и гости: 1