Безумцы / Mad Men / Сезон: 6 / Серии: 1-13 из 13 (Фил Абрахам, Дженнифер Гетцингер, Майкл Аппендаль) [2013, США, Драма, WEB-DL 720p] MVO (Fox Life) + Original

 Статистика раздачи 
Размер: 19.96 ГБ   |  Зарегистрирован: 20 янв 2018, 21:00   |   .torrent скачан: 0 раз
Сидеров: 10  [ 0 байт/сек ]     Личеров: 3  [ 0 байт/сек ]  
  
Аватара пользователя
 
Раздал: 90.26 ГБ
Скачал: 15.93 ГБ
Ратио: 6.635
Сообщения: 6547
Стаж: 8 лет 8 месяцев 20 дней

Безумцы / Mad Men
Год выпуска: 2013
Страна: США
Жанр: Драма
Продолжительность: 00:47:00
Перевод: Профессиональный (многоголосый закадровый) Fox Life
Русские субтитры: нет
Режиссёр: Фил Абрахам, Дженнифер Гетцингер, Майкл Аппендаль
В ролях: Джон Хэмм, Элизабет Мосс, Винсент Картайзер, Дженьюэри Джонс, Джон Слэттери, Кристина Хендрикс, Джаред Харрис, Джессика Паре, Роберт Морс, Кирнан Шипка
Описание: США, 60-е годы ХХ века. В центре повествования — работа рекламного Агентства «Стерлинг-Купер», расположенного на престижной Медисон-авеню в центре Нью-Йорка, и жизнь его креативного директора — мастера манипуляций и интриг — Дона Дрейпера. Находясь на вершине карьеры, он противостоит конкурентам, стараясь сберечь своe положение в компании. Служебные и семейные перипетии Дона и его коллег происходят на фоне глобальных событий в жизни американского общества тех лет
Ссылка на предыдущие и альтернативные раздачи
Сэмпл: https://sendfile.su/867867
Качество: WEB-DL 720р
Формат: MKV
Видео кодек: H.264
Аудио кодек: AC3
Видео: 1280x718, 23.976 fps, ~ 3800 kbps, ~ 0.175 bit/pixel
Аудио Rus: 48 kHz, 2 ch, 192 kbps |Fox Life|
Аудио Eng: 48 kHz, 6 ch, 384 kbps |Original|
Format : Matroska
Format version : Version 2
File size : 1.50 GiB
Duration : 47mn 28s
Overall bit rate : 4 509 Kbps
Encoded date : UTC 2013-08-07 16:16:21
Writing application : mkvmerge v2.9.9 ('Tutu') built on Nov 25 2009 21:13:32
Writing library : libebml v0.7.9 + libmatroska v0.8.1
Video
ID : 1
Format : AVC
Format/Info : Advanced Video Codec
Format profile : High@L3.1
Format settings, CABAC : No
Format settings, ReFrames : 2 frames
Codec ID : V_MPEG4/ISO/AVC
Duration : 47mn 28s
Bit rate : 3 843 Kbps
Width : 1 280 pixels
Height : 718 pixels
Display aspect ratio : 16:9
Frame rate mode : Constant
Frame rate : 23.976 fps
Color space : YUV
Chroma subsampling : 4:2:0
Bit depth : 8 bits
Scan type : Progressive
Bits/(Pixel*Frame) : 0.174
Stream size : 1.27 GiB (85%)
Language : English
Default : No
Forced : No
Color primaries : BT.709
Transfer characteristics : BT.709
Matrix coefficients : BT.709
Audio #1
ID : 2
Format : AC-3
Format/Info : Audio Coding 3
Mode extension : CM (complete main)
Format settings, Endianness : Big
Codec ID : A_AC3
Duration : 47mn 28s
Bit rate mode : Constant
Bit rate : 192 Kbps
Channel(s) : 2 channels
Channel positions : Front: L R
Sampling rate : 48.0 KHz
Bit depth : 16 bits
Compression mode : Lossy
Stream size : 65.2 MiB (4%)
Language : Russian
Default : Yes
Forced : Yes
Audio #2
ID : 3
Format : AC-3
Format/Info : Audio Coding 3
Mode extension : CM (complete main)
Format settings, Endianness : Big
Codec ID : A_AC3
Duration : 47mn 28s
Bit rate mode : Constant
Bit rate : 384 Kbps
Channel(s) : 6 channels
Channel positions : Front: L C R, Side: L R, LFE
Sampling rate : 48.0 KHz
Bit depth : 16 bits
Compression mode : Lossy
Delay relative to video : 22ms
Stream size : 130 MiB (9%)
Language : English
Default : No
Forced : No
Внимание! Раздача ведётся путём добавления новых выпусков; при каждом добавлении создётся новый торрент. Чтобы начать докачку нового выпуска, пользователям необходимо сделать следующее:
(1) остановить скачивание,
(2) удалить старый торрент у себя из клиента (старые выпуски удалять не надо),
(3) скачать новый торрент и запустить его у себя в клиенте вместо старого, при этом указать клиенту путь в старую папку куда и должно происходить скачивание новых выпусков.
Ваш клиент при этом должен произвести хеширование (проверку) старой папки (если не производит сам - помогите ему сделать это), и будет докачивать только те выпуски которых у вас ещё нет. Старые выпуски при этом не удаляются, а продолжают раздаваться!
Eсли вы уже удалили старые выпуски, то предотвратить повторную закачку старых выпусков можно, отжав галочку в соответсвующих местах при запуске нового торрента. По возможности, желательно не удалять старые выпуски как можно дольше чтобы релизёр не столько продолжал раздавать старые выпуски, а смог сконцентрироваться на новых.
Не забывайте говорить Спасибо. Не уходите с раздачи!   
Торрент: Зарегистрирован [20 янв 2018, 21:00]
Статус:
Проверен
 
.torrent скачан: 0 раз
Хэш: 559d02f9eb1e47ec034e7201c0e20af793eafe30
Размер: 19.96 ГБ (21 432 256 457 байт)
   Стать Автором раздачи
   
Цитата
  • Похожие торренты
    Ответы
    Просмотры
    Последнее сообщение

Вернуться в Безумцы / Mad Men

Кто сейчас на конференции

Сейчас эту тему просматривают: нет зарегистрированных пользователей и гости: 1