12 обезьян / 12 Monkeys / Сезон: 1 / Серии: 1-13 из 13 (Дэвид Гроссман, Майкл Ваксман, Джон Бэдэм) [2015, США, фантастика, триллер, драма, детектив, приключения, WEB-DL 720p] MVO (LostFilm) + Original + Subs (rus, eng)

 Статистика раздачи 
Размер: 18.7 ГБ   |  Зарегистрирован: 20 янв 2018, 20:58   |   .torrent скачан: 28 раз
Сидеров: 17  [ 0 байт/сек ]     Личеров: 5  [ 0 байт/сек ]  
  
Аватара пользователя
 
Раздал: 90.26 ГБ
Скачал: 15.93 ГБ
Ратио: 6.635
Сообщения: 6546
Стаж: 9 лет 2 месяца 27 дней



12 обезьян / 12 Monkeys


Год выпуска: 2015
Страна: США
Жанр: фантастика, триллер, драма, детектив, приключения
Продолжительность: ~ 00:43:00
Перевод: Профессиональный (многоголосый закадровый) LostFilm
Режиссёр: Дэвид Гроссман, Майкл Ваксман, Джон Бэдэм
В ролях: Аарон Стэнфорд, Аманда Шулл, Кирк Асеведо, Ной Бин, Демор Барнс, Рамон Де Окампо, Алисен Даун, Барбара Зукова, Эмили Хэмпшир
Описание:
Коул - уголовник из постапокалиптического будущего. Его осудили за дерзкое поведение и неподчинение властям. В конце девяностых некий вирус уничтожил почти всю популяцию людей, а те, кому удалось выжить, укрылись под землей. В то время ученые уже изобрели технологию путешествия во времени, и Коул стал «морской свинкой», на которой эту технологию решили испытать. Он должен добыть для изучения образцы вируса из прошлого и за это получит полное прощение за все содеянное.

Качество: WEB-DL 720p
Контейнер: MKV
Видео: AVC, ~4000 Кбит/сек, 1280x720 (1.778), 23.976 кадр/сек
Аудио rus: AC-3 6 каналов 48,0 КГц 384 Кбит/сек | LostFilm
Аудио eng: AC-3 6 каналов 48,0 КГц 384 Кбит/сек
Субтитры: русские (нотабеноид), английские
Pабота со звуком: 1-3 Re-L Mayer, 4-10 skyns61
Синхронизация субтитров: 1-3 Re-L Mayer, 4-10 skyns61
Монтаж: skyns61
01. Расщеплённый /Splinter
02. Девушка с психическими отклонениями /Mentally Divergent
03. Комплекс Кассандры /Cassandra Complex
04. Атари /Atari
05. Ночная комната /The Night Room
06. Красный лес /The Red Forest
07. Острова /The Keys
08. Вчера /Yesterday
09. Завтра /Tomorrow
10. Божественный ход /Divine Move
11. Сёнин /Shonin
12. Парадокс /Paradox
13. В моих руках /Arms of Mine
Общее
Уникальный идентификатор : 176754353593749067412784518219752092688 (0x84F9A6760B23CD59970FDDE06DF53410)
Полное имя : F:\Films\12 Monkeys.S01.720p.LostFilm\12.Monkeys.s01e01.HD720p.WEB-DL.Rus.Eng.mkv
Формат : Matroska
Версия формата : Version 4 / Version 2
Размер файла : 1,61 Гбайт
Продолжительность : 47 м.
Общий поток : 4809 Кбит/сек
Дата кодирования : UTC 2015-02-01 13:43:34
Программа кодирования : mkvmerge v7.5.0 ('Glass Culture') 64bit built on Jan 4 2015 16:48:44
Библиотека кодирования : libebml v1.3.1 + libmatroska v1.4.2
_STATISTICS_WRITING_APP : mkvmerge v7.5.0 ('Glass Culture') 64bit built on Jan 4 2015 16:48:44
_STATISTICS_WRITING_DATE_UTC : 2015-02-01 13:43:34
_STATISTICS_TAGS : BPS DURATION NUMBER_OF_FRAMES NUMBER_OF_BYTES
DURATION : 00:46:43.733000000
NUMBER_OF_FRAMES : 777
NUMBER_OF_BYTES : 22345
Видео
Идентификатор : 1
Формат : AVC
Формат/Информация : Advanced Video Codec
Профиль формата : High@L3.1
Параметр CABAC формата : Нет
Параметр ReFrames формата : 2 кадра
Идентификатор кодека : V_MPEG4/ISO/AVC
Продолжительность : 47 м.
Битрейт : 3945 Кбит/сек
Ширина : 1280 пикселей
Высота : 720 пикселей
Соотношение сторон : 16:9
Режим частоты кадров : Постоянный
Частота кадров : 23,976 кадра/сек
Цветовое пространство : YUV
Субдискретизация насыщенности : 4:2:0
Битовая глубина : 8 бит
Тип развёртки : Прогрессивная
Бит/(Пиксели*Кадры) : 0.179
Размер потока : 1,32 Гбайт (82%)
Язык : English
Default : Да
Forced : Нет
Основные цвета : BT.709
Характеристики трансфера : BT.709
Коэффициенты матрицы : BT.709
Аудио #1
Идентификатор : 2
Формат : AC-3
Формат/Информация : Audio Coding 3
Расширение режима : CM (complete main)
Параметр Endianness формата : Big
Идентификатор кодека : A_AC3
Продолжительность : 47 м.
Вид битрейта : Постоянный
Битрейт : 384 Кбит/сек
Каналы : 6 каналов
Расположение каналов : Front: L C R, Side: L R, LFE
Частота : 48,0 КГц
Битовая глубина : 16 бит
Метод сжатия : С потерями
Задержка видео : 5 мс.
Размер потока : 131 Мбайт (8%)
Заголовок : LostFilm 5.1
Язык : Russian
Default : Да
Forced : Нет
Аудио #2
Идентификатор : 3
Формат : AC-3
Формат/Информация : Audio Coding 3
Расширение режима : CM (complete main)
Параметр Endianness формата : Big
Идентификатор кодека : A_AC3
Продолжительность : 47 м.
Вид битрейта : Постоянный
Битрейт : 384 Кбит/сек
Каналы : 6 каналов
Расположение каналов : Front: L C R, Side: L R, LFE
Частота : 48,0 КГц
Битовая глубина : 16 бит
Метод сжатия : С потерями
Размер потока : 131 Мбайт (8%)
Язык : English
Default : Нет
Forced : Нет
Текст #1
Идентификатор : 4
Формат : UTF-8
Идентификатор кодека : S_TEXT/UTF8
Идентификатор кодека/Информация : UTF-8 Plain Text
Заголовок : cloudmachine
Язык : Russian
Default : Нет
Forced : Нет
Текст #2
Идентификатор : 5
Формат : UTF-8
Идентификатор кодека : S_TEXT/UTF8
Идентификатор кодека/Информация : UTF-8 Plain Text
Заголовок : CC
Язык : English
Default : Нет
Forced : Нет
Раздача обновлена. Добавлена 13-я серия. Приятного просмотра!
Не забывайте говорить Спасибо. Не уходите с раздачи!   
Торрент: Зарегистрирован [20 янв 2018, 20:58]
Статус:
Проверен
 
.torrent скачан: 28 раз
Хэш: 09ea3250b70ea88cfdd34452006263dff11c7ddc
Размер: 18.7 ГБ (20 083 652 658 байт)
   Стать Автором раздачи
   
Цитата
  • Похожие торренты
    Ответы
    Просмотры
    Последнее сообщение

Вернуться в 12 обезьян / 12 Monkeys

Кто сейчас на конференции

Сейчас эту тему просматривают: нет зарегистрированных пользователей и гости: 1