В объезд / Та еще поездочка / The Detour / Сезон: 2 / Серии: 1-12 из 12 (Джефф Томсич, Стив Пинк, Бреннан Шрофф / Jeff Tomsic, Steve Pink, Brennan Shroff) [2017, США, комедия, роуд-сериал, WEB-DL 720p] MVO (Jaskier) + Original

 Статистика раздачи 
Размер: 9.12 ГБ   |  Зарегистрирован: 20 янв 2018, 20:55   |   .torrent скачан: 30 раз
Сидеров: 10  [ 0 байт/сек ]     Личеров: 1  [ 0 байт/сек ]  
  
Аватара пользователя
 
Раздал: 90.26 ГБ
Скачал: 15.93 ГБ
Ратио: 6.635
Сообщения: 6547
Стаж: 8 лет 11 месяцев 18 дней

Та еще поездочка / The Detour

Оригинальное название: The Detour
Русское название: Та еще поездочка
Год выпуска: 2017
Страна: США
Жанр: Комедия, роуд-сериал
Продолжительность: ~00:20:00
Перевод: Профессиональный (многоголосый закадровый) Студия Jaskier присутствует ненормативная лексика
Субтитры: Нет
Режиссёр: Джефф Томсич, Стив Пинк, Бреннан Шрофф
В ролях: Джейсон Джонс, Натали Зи, Эшли Герасимович, Лайам Кэрролл, Мэри Грилл, Даниэлла Пинеда, Фил Ривз, Дэрин Купер, Деджа Ди, Тейлор Ковальски, Винс Фостер, Денитра Ислер, Адам Бойер, Том Амандес и др.
Описание: Главные герои проживали во Флориде. У них двое детей. Однако скучная рутинная жизнь им надоела, поэтому герои решили отправиться в большое путешествие! Путь непростой, но герои всегда оптимистичны - они верят в себя, а их путь благоволит им. Кажется, что впереди их ждет долгая дорога, полная интересных открытий. Герои воодушевлены дорогой, однако вскоре они понимают, что проблем в пути будет куда больше, чем положительных моментов!
Сэмпл
Качество: WEBRip 720p
Формат: MKV
Видео кодек: h.264
Аудио кодек: AC3, E-AC3
Видео: H.264, 1280x720 (16:9), 23.976 fps, 3290 kbps, 0.145 bit/pixel
Аудио 1: Dolby AC3 48000Hz 6ch 384 Kbps Русский
Аудио 2: Dolby E-AC3 48000Hz 6ch 640 Kbps Оригинал (Английский)
Код:
Код: Выделить всё
General
Unique ID                   : 225669294884306973504391531797618507642 (0xA9C65343E36AE081B196E26C38523F7A)
Complete name               : D:\HD TV Series\The Detour. Season 2 (WEBRip l 720p l Jaskier)\The.Detour.S02E01.The.City.720p.AMZN.WEBRip.DD5.1.x264-Jaskier.mkv
Format                      : Matroska
Format version              : Version 2
File size                   : 926 MiB
Duration                    : 30mn 3s
Overall bit rate            : 4 307 Kbps
Movie name                  : Detour 02x01 (The City) - release by messafan for CasStudio
Encoded date                : UTC 2017-03-25 12:08:18
Writing application         : mkvmerge v5.4.0 ('Piper') built on Mar 10 2012 13:34:39
Writing library             : libebml v1.2.3 + libmatroska v1.3.0
Video
ID                          : 1
Format                      : AVC
Format/Info                 : Advanced Video Codec
Format profile              : High@L4.1
Format settings, CABAC      : Yes
Format settings, ReFrames   : 9 frames
Codec ID                    : V_MPEG4/ISO/AVC
Duration                    : 30mn 3s
Bit rate                    : 3 198 Kbps
Width                       : 1 280 pixels
Height                      : 720 pixels
Display aspect ratio        : 16:9
Frame rate mode             : Constant
Frame rate                  : 23.976 fps
Color space                 : YUV
Chroma subsampling          : 4:2:0
Bit depth                   : 8 bits
Scan type                   : Progressive
Bits/(Pixel*Frame)          : 0.145
Stream size                 : 687 MiB (74%)
Writing library             : x264 core 148 r2744kMod b97ae06
Encoding settings           : cabac=1 / ref=9 / deblock=1:-3:-3 / analyse=0x3:0x113 / me=umh / subme=10 / psy=1 / fade_compensate=0.00 / psy_rd=1.00:0.00 / mixed_ref=1 / me_range=32 / chroma_me=1 / trellis=2 / 8x8dct=1 / cqm=0 / deadzone=21,11 / fast_pskip=0 / chroma_qp_offset=-2 / threads=12 / lookahead_threads=2 / sliced_threads=0 / nr=0 / decimate=1 / interlaced=0 / bluray_compat=0 / constrained_intra=0 / bframes=9 / b_pyramid=2 / b_adapt=2 / b_bias=0 / direct=3 / weightb=1 / open_gop=0 / weightp=2 / keyint=250 / keyint_min=23 / scenecut=40 / intra_refresh=0 / rc_lookahead=40 / rc=crf / mbtree=0 / crf=18.0000 / qcomp=0.60 / qpmin=0 / qpmax=69 / qpstep=4 / vbv_maxrate=50000 / vbv_bufsize=65000 / crf_max=0.0 / nal_hrd=none / filler=0 / ip_ratio=1.30 / pb_ratio=1.20 / aq=3:0.80
Language                    : English
Default                     : Yes
Forced                      : No
Audio #1
ID                          : 2
Format                      : AC-3
Format/Info                 : Audio Coding 3
Mode extension              : CM (complete main)
Format settings, Endianness : Big
Codec ID                    : A_AC3
Duration                    : 30mn 3s
Bit rate mode               : Constant
Bit rate                    : 384 Kbps
Channel(s)                  : 6 channels
Channel positions           : Front: L C R, Side: L R, LFE
Sampling rate               : 48.0 KHz
Compression mode            : Lossy
Stream size                 : 82.6 MiB (9%)
Language                    : Russian
Default                     : Yes
Forced                      : No
Audio #2
ID                          : 3
Format                      : E-AC-3
Format/Info                 : Audio Coding 3
Format settings, Endianness : Big
Codec ID                    : A_EAC3
Duration                    : 30mn 3s
Bit rate mode               : Constant
Bit rate                    : 640 Kbps
Channel(s)                  : 6 channels
Channel positions           : Front: L C R, Side: L R, LFE
Sampling rate               : 48.0 KHz
Compression mode            : Lossy
Stream size                 : 138 MiB (15%)
Language                    : English
Default                     : No
Forced                      : No
Text
ID                          : 4
Format                      : UTF-8
Codec ID                    : S_TEXT/UTF8
Codec ID/Info               : UTF-8 Plain Text
Title                       : SDH
Language                    : English
Default                     : No
Forced                      : No

Внимание! Раздача ведётся путём добавления новых серий; при каждом добавлении создётся новый торрент. Чтобы начать докачку новой серии, пользователям необходимо сделать следующее:
    Остановить скачивание.
    Удалить старый торрент у себя из клиента (старые серии удалять не надо).
    Скачать новый торрент и запустить его у себя в клиенте вместо старого, при этом указать клиенту путь в старую папку куда и должно происходить скачивание новых серий.
    Ваш клиент при этом должен произвести хеширование (проверку) старой папки (если не производит сам - помогите ему сделать это), и будет докачивать только те серии которых у вас ещё нет. Старые серии при этом не удаляются, а продолжают раздаваться!
    Eсли вы уже удалили старые серии, то предотвратить повторную закачку старых серий можно, отжав галочку в соответсвующих местах при запуске нового торрента. По возможности, желательно не удалять старые серии как можно дольше чтобы релизёр не столько продолжал раздавать старые серии, а смог сконцентрироваться на новых.
Не забывайте говорить Спасибо. Не уходите с раздачи!   
Торрент: Зарегистрирован [20 янв 2018, 20:55]
Статус:
Проверен
 
.torrent скачан: 30 раз
Хэш: 6ca79b1f348f4dfce0b604a7ef108ebd3394517e
Размер: 9.12 ГБ (9 796 961 093 байт)
   Стать Автором раздачи
   
Цитата
  • Похожие торренты
    Ответы
    Просмотры
    Последнее сообщение

Вернуться в В объезд / The Detour

Кто сейчас на конференции

Сейчас эту тему просматривают: нет зарегистрированных пользователей и гости: 1