Банши / Banshee / Сезон: 2 / Серии: 1-10 (10) (Мигель Сапочник, Грег Яйтанс / Miguel Sapochnik, Greg Yaitanes) [2014, США, Драма, криминал, детектив, BDRip 720p] 3xMVO (Amedia, 2x2, NewStudio) + Ukr (НТН) + Original + Subs (Rus, Eng)

 Статистика раздачи 
Размер: 24.15 ГБ   |  Зарегистрирован: 20 янв 2018, 20:53   |   .torrent скачан: 0 раз
Сидеров: 19  [ 0 байт/сек ]     Личеров: 5  [ 0 байт/сек ]  
  
Аватара пользователя
 
Раздал: 90.26 ГБ
Скачал: 15.93 ГБ
Ратио: 6.635
Сообщения: 6547
Стаж: 8 лет 7 месяцев 17 дней

Банши / Banshee

Год выпуска: 2014
Страна: США
Студия: HBO, Cinemax
Жанр: Драма, криминал, детектив
Продолжительность: ~50-60 минут (серия)
Перевод:
    Профессиональный (многоголосый закадровый) студия "Пифагор" по заказу Amedia,
    Профессиональный (многоголосый закадровый) студия "Кравец" по заказу ,
    Профессиональный (многоголосый закадровый) ,
  • Профессиональный (многоголосый закадровый) студия "Так треба продактшн" по заказу НТН |Украинский|
Код: Выделить всё

Режиссёр: Мигель Сапочник, Грег Яйтанс / Miguel Sapochnik, Greg Yaitanes
В ролях: Энтони Старр, Ивана Миличевич, Хун Ли, Рас Блэквелл, Триесте Келли Данн, Лили Симмонс, Фрэнки Фэйзон, Мэтт Сервитто, Деметриус Гросс, Ульрих Томсен, Райанн Шэйн, Бен Кросс, Энтони Руйвивар, Мэттью Ройч.
Роли озвучивали:
    Amedia: Дмитрий Поляновский, Леонид Белозорович, Ирина Савина, Василиса Воронина, Олег Куценко и Илья Хвостиков.
  • НТН: Владимир Терещук, Юрий Гребельник, Евгений Пашин, Светлана Шекера.
Код: Выделить всё

Описание: Лукас Худ — отбывший наказание в тюрьме вор, который некогда предал своих подельников. После отсидки он приезжает в небольшой городок в Пенсильвании, носящий название Банши, где обманом получает пост местного шерифа. Но это не значит, что он забыл своё криминальное прошлое и теперь служит закону. Гангстеры, которых он когда-то предал, всё еще помнят про него и стремятся отомстить. Назревает жесткое противостояние между новоявленным шерифом и его бывшими приятелями. Спокойствие местного населения нарушается, а убийство следует за убийством, когда шериф начинает «наводить порядок» во вверенном его заботам городке.
Этот сериал содержит ненормативную лексику и сцены эротического характера.

РЕЛИЗ ОТ: V.SERIJ2013
    Nez - за аудиодорожку Amedia и субтитры
    #Antisnl#, Beer kolesik Drinkers - за запись звука с телеканала 2x2
    Vericeni - за аудиодорожку NewStudio
    Dark Invader 2, BILko - за запись звука с телеканала НТН
  • v.serij2013 (т.е., мне) - за сведение.
    Код: Выделить всё

Качество: BDRip 720p |NTb|
Формат: MKV
Видео кодек: H.264
Аудио кодек: AC3
Видео: H.264, 1280x720 (16:9), 23.976 fps, ~4487 kbps, 0.203 bit/pixel
Аудио:
    русская |Amedia|: AC3, 48 kHz, 2 ch, 192 kbps
    русская |2x2|: AC3, 48 kHz, 2 ch, 192 kbps
    русская |NewStudio|: AC3, 48 kHz, 6 ch, 640 kbps
    украинская |НТН|: AC3, 48 kHz, 2 ch, 192 kbps
  • английская |Оригинал|: AC3, 48 kHz, 6 ch, 640 kbps
Код: Выделить всё
Субтитры: русские |Amedia|, английские
\ Все раздачи сериала \ 1 сезон (BDRip 720p)

01. Little Fish
02. The Thunder Man
03. The Warrior Class
04. Bloodlines
05. The Truth About Unicorns
06. Armies of One
07. Ways to Bury a Man
08. Evil for Evil
09. Homecoming
10. Bullets and Tears
Код: Выделить всё
Код:
Код: Выделить всё
General
Unique ID                                : 252257029595374868529587407447980615010 (0xBDC6EFCB70856A279AD6FD259D71A562)
Complete name                            : E:\Video\HD\Series (HD)\Banshee (HD)\Banshee Season 2 (BDRip 720p)\01. Little Fish.mkv
Format                                   : Matroska
Format version                           : Version 4 / Version 2
File size                                : 2.26 GiB
Duration                                 : 50mn 4s
Overall bit rate                         : 6 472 Kbps
Movie name                               : Banshee Season 2 (BDRip | 720p | v.serij2013)
Encoded date                             : UTC 2015-09-15 10:58:06
Writing application                      : mkvmerge v8.2.0 ('World of Adventure') 32bit
Writing library                          : libebml v1.3.1 + libmatroska v1.4.2
DURATION                                 : 00:50:04.928000000
NUMBER_OF_FRAMES                         : 93904
NUMBER_OF_BYTES                          : 72118272
_STATISTICS_WRITING_APP                  : mkvmerge v8.2.0 ('World of Adventure') 32bit
_STATISTICS_WRITING_DATE_UTC             : 2015-09-15 10:58:06
_STATISTICS_TAGS                         : BPS DURATION NUMBER_OF_FRAMES NUMBER_OF_BYTES
Video
ID                                       : 1
Format                                   : AVC
Format/Info                              : Advanced Video Codec
Format profile                           : High@L4.1
Format settings, CABAC                   : Yes
Format settings, ReFrames                : 9 frames
Codec ID                                 : V_MPEG4/ISO/AVC
Duration                                 : 50mn 4s
Bit rate                                 : 4 487 Kbps
Width                                    : 1 280 pixels
Height                                   : 720 pixels
Display aspect ratio                     : 16:9
Frame rate mode                          : Constant
Frame rate                               : 23.976 fps
Color space                              : YUV
Chroma subsampling                       : 4:2:0
Bit depth                                : 8 bits
Scan type                                : Progressive
Bits/(Pixel*Frame)                       : 0.203
Stream size                              : 1.57 GiB (69%)
Writing library                          : x264 core 146 r2538 121396c
Encoding settings                        : cabac=1 / ref=9 / deblock=1:-3:-3 / analyse=0x3:0x133 / me=umh / subme=10 / psy=1 / psy_rd=1.05:0.00 / mixed_ref=1 / me_range=32 / chroma_me=1 / trellis=2 / 8x8dct=1 / cqm=0 / deadzone=21,11 / fast_pskip=0 / chroma_qp_offset=-2 / threads=12 / lookahead_threads=2 / sliced_threads=0 / nr=0 / decimate=0 / interlaced=0 / bluray_compat=0 / constrained_intra=0 / bframes=8 / b_pyramid=2 / b_adapt=2 / b_bias=0 / direct=3 / weightb=1 / open_gop=0 / weightp=2 / keyint=240 / keyint_min=23 / scenecut=40 / intra_refresh=0 / rc_lookahead=60 / rc=crf / mbtree=0 / crf=16.0 / qcomp=0.70 / qpmin=0 / qpmax=69 / qpstep=4 / vbv_maxrate=50000 / vbv_bufsize=62500 / crf_max=0.0 / nal_hrd=none / filler=0 / ip_ratio=1.40 / pb_ratio=1.30 / aq=1:0.70
Language                                 : English
Default                                  : Yes
Forced                                   : No
Audio #1
ID                                       : 2
Format                                   : AC-3
Format/Info                              : Audio Coding 3
Mode extension                           : CM (complete main)
Format settings, Endianness              : Big
Codec ID                                 : A_AC3
Duration                                 : 50mn 4s
Bit rate mode                            : Constant
Bit rate                                 : 192 Kbps
Channel(s)                               : 2 channels
Channel positions                        : Front: L R
Sampling rate                            : 48.0 KHz
Bit depth                                : 16 bits
Compression mode                         : Lossy
Stream size                              : 68.8 MiB (3%)
Title                                    : MVO (Amedia)
Language                                 : Russian
Default                                  : Yes
Forced                                   : No
Audio #2
ID                                       : 3
Format                                   : AC-3
Format/Info                              : Audio Coding 3
Mode extension                           : CM (complete main)
Format settings, Endianness              : Big
Codec ID                                 : A_AC3
Duration                                 : 50mn 4s
Bit rate mode                            : Constant
Bit rate                                 : 192 Kbps
Channel(s)                               : 2 channels
Channel positions                        : Front: L R
Sampling rate                            : 48.0 KHz
Bit depth                                : 16 bits
Compression mode                         : Lossy
Stream size                              : 68.8 MiB (3%)
Title                                    : MVO (2x2)
Language                                 : Russian
Default                                  : No
Forced                                   : No
Audio #3
ID                                       : 4
Format                                   : AC-3
Format/Info                              : Audio Coding 3
Mode extension                           : CM (complete main)
Format settings, Endianness              : Big
Codec ID                                 : A_AC3
Duration                                 : 50mn 4s
Bit rate mode                            : Constant
Bit rate                                 : 640 Kbps
Channel(s)                               : 6 channels
Channel positions                        : Front: L C R, Side: L R, LFE
Sampling rate                            : 48.0 KHz
Bit depth                                : 16 bits
Compression mode                         : Lossy
Stream size                              : 229 MiB (10%)
Title                                    : MVO (NewStudio)
Language                                 : Russian
Default                                  : No
Forced                                   : No
Audio #4
ID                                       : 5
Format                                   : AC-3
Format/Info                              : Audio Coding 3
Mode extension                           : CM (complete main)
Format settings, Endianness              : Big
Codec ID                                 : A_AC3
Duration                                 : 50mn 4s
Bit rate mode                            : Constant
Bit rate                                 : 192 Kbps
Channel(s)                               : 2 channels
Channel positions                        : Front: L R
Sampling rate                            : 48.0 KHz
Bit depth                                : 16 bits
Compression mode                         : Lossy
Stream size                              : 68.8 MiB (3%)
Title                                    : MVO (НТН)
Language                                 : Ukrainian
Default                                  : No
Forced                                   : No
Audio #5
ID                                       : 6
Format                                   : AC-3
Format/Info                              : Audio Coding 3
Mode extension                           : CM (complete main)
Format settings, Endianness              : Big
Codec ID                                 : A_AC3
Duration                                 : 50mn 4s
Bit rate mode                            : Constant
Bit rate                                 : 640 Kbps
Channel(s)                               : 6 channels
Channel positions                        : Front: L C R, Side: L R, LFE
Sampling rate                            : 48.0 KHz
Bit depth                                : 16 bits
Compression mode                         : Lossy
Stream size                              : 229 MiB (10%)
Title                                    : Original
Language                                 : English
Default                                  : No
Forced                                   : No
Text #1
ID                                       : 7
Format                                   : UTF-8
Codec ID                                 : S_TEXT/UTF8
Codec ID/Info                            : UTF-8 Plain Text
Title                                    : Amedia
Language                                 : Russian
Default                                  : No
Forced                                   : No
Text #2
ID                                       : 8
Format                                   : UTF-8
Codec ID                                 : S_TEXT/UTF8
Codec ID/Info                            : UTF-8 Plain Text
Title                                    : Original
Language                                 : English
Default                                  : No
Forced                                   : No
Menu
00:00:00.000                             : en:Chapter 01
00:07:25.403                             : en:Chapter 02
00:17:35.345                             : en:Chapter 03
00:25:47.420                             : en:Chapter 04
00:33:45.023                             : en:Chapter 05
00:42:40.182                             : en:Chapter 06
00:48:23.567                             : en:Chapter 07


Не забывайте говорить Спасибо. Не уходите с раздачи!   
Торрент: Зарегистрирован [20 янв 2018, 20:53]
Статус:
Проверен
 
.torrent скачан: 0 раз
Хэш: 890fbe6bebc8f10a5ef301b52ee78a5f00d2626e
Размер: 24.15 ГБ (25 934 592 281 байт)
   Стать Автором раздачи
   
Цитата
  • Похожие торренты
    Ответы
    Просмотры
    Последнее сообщение

Вернуться в Банши / Banshee

Кто сейчас на конференции

Сейчас эту тему просматривают: нет зарегистрированных пользователей и гости: 1