Мир Дикого Запада / Westworld / Сезон: 1 / Серии: 1-10 из 10 (Джонатан Нолан, Джонни Кэмпбелл, Ричард Дж. Льюис) [2016, США, фантастика, триллер, вестерн, BDRip 1080p] Dub (Кравец) + Original + Subs (Rus, Eng)

 Статистика раздачи 
Размер: 49.73 ГБ   |  Зарегистрирован: 20 янв 2018, 20:30   |   .torrent скачан: 335 раз
Сидеров: 1  [ 0 байт/сек ]     Личеров: 1  [ 0 байт/сек ]  
  
Аватара пользователя
 
Раздал: 90.26 ГБ
Скачал: 15.93 ГБ
Ратио: 6.635
Сообщения: 6547
Стаж: 8 лет 11 месяцев 18 дней

Мир Дикого Запада / Westworld
Год выпуска: 2016
Страна: США
Жанр: фантастика, триллер, вестерн
Продолжительность: ~ 01:00:00
Перевод: Профессиональный (дублированный) Кравец
Режиссёр: Джонатан Нолан, Джонни Кэмпбелл, Ричард Дж. Льюис
В ролях: Энтони Хопкинс, Эван Рэйчел Вуд, Эд Харрис, Джеймс Марсден, Тэнди Ньютон, Джеффри Райт, Родриго Санторо, Шеннон Мари Вудворд, Ингрид Больсё Бердаль, Саймон Куотерман
Описание: В футуристическом парке развлечений «Мир Дикого Запада» специально сконструированные андроиды выполняют любые прихоти посетителей, чтобы те чувствовали безнаказанность и полную свободу действий. Если робота убили — не беда, техники его починят, сотрут память и снова поставят в строй, навстречу новому дню и новым людским прихотям. Но оказывается, что далеко не все роботы теряют воспоминания.
Ссылка на предыдущие и альтернативные раздачи
Сэмпл
Качество: BDRip 1080p
Контейнер: MKV
Видео: AVC, 1920x1080 (16:9), 23.976 fps, 9.97 Mbps (0.201 bit/pixel)
Аудио 1: AC3, 48 KHz, 6 ch, 384 kbps (Кравец)
Аудио 2: DTS, 48 KHz, 6 ch, 1 509 kbps (Original)
Субтитры: русские (Amedia), английские (Full)
Реклама: Отсутствует
За подогнанные дубляж и субтитры спасибо ZgurVas
BDRemux

BDRip

WEBRip
Complete name : D:\Westworld.S01.1080p\Westworld.S01E01.1080p.mkv
Format : Matroska
Format version : Version 4 / Version 2
File size : 5.65 GiB
Duration : 1 h 8 min
Overall bit rate : 11.9 Mb/s
Encoded date : UTC 2017-11-05 13:14:41
Writing application : mkvmerge v9.9.0 ('Pick Up') 32bit
Writing library : libebml v1.3.4 + libmatroska v1.4.5
Video
ID : 1
Format : AVC
Format/Info : Advanced Video Codec
Format profile : High@L4.1
Format settings : CABAC / 4 Ref Frames
Format settings, CABAC : Yes
Format settings, RefFrames : 4 frames
Codec ID : V_MPEG4/ISO/AVC
Duration : 1 h 8 min
Bit rate : 9 977 kb/s
Width : 1 920 pixels
Height : 1 080 pixels
Display aspect ratio : 16:9
Frame rate mode : Constant
Frame rate : 23.976 (24000/1001) FPS
Color space : YUV
Chroma subsampling : 4:2:0
Bit depth : 8 bits
Scan type : Progressive
Bits/(Pixel*Frame) : 0.201
Stream size : 4.75 GiB (84%)
Writing library : x264 core 152 r2851 ba24899
Encoding settings : cabac=1 / ref=4 / deblock=1:-3:-3 / analyse=0x3:0x113 / me=umh / subme=8 / psy=1 / psy_rd=1.00:0.00 / mixed_ref=1 / me_range=32 / chroma_me=1 / trellis=2 / 8x8dct=1 / cqm=0 / deadzone=21,11 / fast_pskip=1 / chroma_qp_offset=-2 / threads=24 / lookahead_threads=4 / sliced_threads=0 / nr=0 / decimate=1 / interlaced=0 / bluray_compat=0 / constrained_intra=0 / bframes=3 / b_pyramid=2 / b_adapt=2 / b_bias=0 / direct=3 / weightb=1 / open_gop=0 / weightp=2 / keyint=240 / keyint_min=24 / scenecut=40 / intra_refresh=0 / rc_lookahead=50 / rc=2pass / mbtree=1 / bitrate=9977 / ratetol=1.0 / qcomp=0.60 / qpmin=0 / qpmax=69 / qpstep=4 / cplxblur=20.0 / qblur=0.5 / ip_ratio=1.40 / aq=3:0.80
Language : English
Default : Yes
Forced : No
Audio #1
ID : 2
Format : AC-3
Format/Info : Audio Coding 3
Format settings, Endianness : Big
Codec ID : A_AC3
Duration : 1 h 8 min
Bit rate mode : Constant
Bit rate : 384 kb/s
Channel(s) : 6 channels
Channel positions : Front: L C R, Side: L R, LFE
Sampling rate : 48.0 kHz
Frame rate : 31.250 FPS (1536 SPF)
Bit depth : 16 bits
Compression mode : Lossy
Stream size : 187 MiB (3%)
Title : Dub (Кравец)
Language : Russian
Service kind : Complete Main
Default : Yes
Forced : No
Audio #2
ID : 3
Format : DTS
Format/Info : Digital Theater Systems
Mode : 16
Format settings, Endianness : Big
Codec ID : A_DTS
Duration : 1 h 8 min
Bit rate mode : Constant
Bit rate : 1 509 kb/s
Channel(s) : 6 channels
Channel positions : Front: L C R, Side: L R, LFE
Sampling rate : 48.0 kHz
Frame rate : 93.750 FPS (512 SPF)
Bit depth : 24 bits
Compression mode : Lossy
Stream size : 735 MiB (13%)
Title : Original
Language : English
Default : No
Forced : No
Text #1
ID : 4
Format : UTF-8
Codec ID : S_TEXT/UTF8
Codec ID/Info : UTF-8 Plain Text
Duration : 1 h 4 min
Bit rate : 72 b/s
Count of elements : 698
Stream size : 34.6 KiB (0%)
Title : Amedia
Language : Russian
Default : No
Forced : No
Text #2
ID : 5
Format : UTF-8
Codec ID : S_TEXT/UTF8
Codec ID/Info : UTF-8 Plain Text
Duration : 1 h 4 min
Bit rate : 51 b/s
Count of elements : 746
Stream size : 24.3 KiB (0%)
Title : Original
Language : English
Default : No
Forced : No
Не забывайте говорить Спасибо. Не уходите с раздачи!   
Торрент: Зарегистрирован [20 янв 2018, 20:30]
Статус:
Проверен
 
.torrent скачан: 335 раз
Хэш: 41302bd6b527e0b2eadc831be2eded3fb3898f5d
Размер: 49.73 ГБ (53 401 326 805 байт)
   Стать Автором раздачи
   
Цитата
  • Похожие торренты
    Ответы
    Просмотры
    Последнее сообщение

Вернуться в Мир Дикого запада / Westworld

Кто сейчас на конференции

Сейчас эту тему просматривают: нет зарегистрированных пользователей и гости: 1