Доктор Шанс / Chance / Сезон: 2 / Серия: 1-10 из 10 (Дэниэл Эттиэс, Леонард Абрахамсон, Майкл Леманн) [2017, США, триллер, драма, детектив, WEBRip 720p] MVO (Jaskier) + Original

 Статистика раздачи 
Размер: 7.9 ГБ   |  Зарегистрирован: 20 янв 2018, 20:30   |   .torrent скачан: 26 раз
Сидеров: 8  [ 0 байт/сек ]     Личеров: 2  [ 0 байт/сек ]  
  
Аватара пользователя
 
Раздал: 90.26 ГБ
Скачал: 15.93 ГБ
Ратио: 6.635
Сообщения: 6550
Стаж: 8 лет 3 месяца 23 дня


Доктор Шанс | Chance


Год выпуска: 2017
Страна: США
Жанр: триллер, драма, детектив
Продолжительность: ~ 00:50:00
Перевод: Профессиональный (многоголосый закадровый) | Jaskier
Режиссёр: Дэниэл Эттиэс, Леонард Абрахамсон, Майкл Леманн
В ролях: Хью Лори, Дайан Фарр, Лиза Гэй Хэмилтон, Стефания Оуэн, Грета Ли, Гретчен Мол, Пол Адельштейн, Итан Сапли, Кларк Питерс и др.
Описание: В центре внимания оказывается персонаж, роль которого сыграл Хью Лори. Элдон Чэнс - нейропсихиатр, который работает на судебную организацию. Этот человек оказывается в эпицентре конфликта, связанного с коррупцией в правящих рядах. Главному герою приходится перейти через черту своих профессиональных обязательств ради просьбы одной безумно привлекательной пациентки. Однако вскоре несчастный Ченс попадает в разработку супруга этой женщины. Тот - полицейский, который считается одним из самых жестких и жестоких в своей профессии.

| Ссылка на предыдущие и альтернативные раздачи |
Качество: WEBRip 720p
Формат: MKV
Видео: X264, ~ 2000 kbps, 1280x720 (16:9), 23.976 fps
Аудио 1: AC3, 48,0 КГц, 2 ch, 192 kbps - RUS
Аудио 2: AC3, 48,0 КГц, 2 ch, 192 kbps - ENG
Субтитры: отсутствуют
Реклама: Присутствует звуковая (два раза в начале и конце по 12 сек.)
Переведено и озвучено студией JASKIER
Код:
Код: Выделить всё
Общее
Уникальный идентификатор                 : 193528558661795396675714512111138413398 (0x91983E9F8D90774FA3A3C63EFB4A9B56)
Полное имя                               : E:\JASKiER\Chance. Season 2 (WEBRip l 720p l Jaskier)\Chance.s02e01.720p.WEBRip.x264-Jaskier.mkv
Формат                                   : Matroska
Версия формата                           : Version 2
Размер файла                             : 654 Мбайт
Продолжительность                        : 45 м. 17 с.
Общий поток                              : 2018 Кбит/сек
Дата кодирования                         : UTC 2017-10-20 10:49:35
Программа кодирования                    : mkvmerge v7.8.0 ('River Man') 32bit built on Apr  3 2015 12:11:22
Библиотека кодирования                   : libebml v1.3.1 + libmatroska v1.4.2
Видео
Идентификатор                            : 1
Формат                                   : AVC
Формат/Информация                        : Advanced Video Codec
Профиль формата                          : High@L3.1
Параметр CABAC формата                   : Да
Параметр RefFrames формата               : 5 кадров
Идентификатор кодека                     : V_MPEG4/ISO/AVC
Продолжительность                        : 45 м. 17 с.
Битрейт                                  : 1594 Кбит/сек
Ширина                                   : 1280 пикселей
Высота                                   : 720 пикселей
Соотношение сторон                       : 16:9
Режим частоты кадров                     : Постоянный
Частота кадров                           : 23,976 кадра/сек
Цветовое пространство                    : YUV
Субдискретизация насыщенности            : 4:2:0
Битовая глубина                          : 8 бит
Тип развёртки                            : Прогрессивная
Бит/(Пиксели*Кадры)                      : 0.072
Размер потока                            : 516 Мбайт (79%)
Язык                                     : English
Default                                  : Да
Forced                                   : Нет
Аудио #1
Идентификатор                            : 2
Формат                                   : AC-3
Формат/Информация                        : Audio Coding 3
Параметр Endianness формата              : Big
Идентификатор кодека                     : A_AC3
Продолжительность                        : 45 м. 17 с.
Вид битрейта                             : Постоянный
Битрейт                                  : 192 Кбит/сек
Каналы                                   : 2 канала
Расположение каналов                     : Front: L R
Частота                                  : 48,0 КГц
Частота кадров                           : 31,250 кадров/сек (1536 spf)
Битовая глубина                          : 16 бит
Метод сжатия                             : С потерями
Размер потока                            : 62,2 Мбайт (10%)
Заголовок                                : Jaskier
Язык                                     : Russian
ServiceKind/String                       : Complete Main
Default                                  : Да
Forced                                   : Нет
Аудио #2
Идентификатор                            : 3
Формат                                   : AC-3
Формат/Информация                        : Audio Coding 3
Параметр Endianness формата              : Big
Идентификатор кодека                     : A_AC3
Продолжительность                        : 45 м. 17 с.
Вид битрейта                             : Постоянный
Битрейт                                  : 192 Кбит/сек
Каналы                                   : 2 канала
Расположение каналов                     : Front: L R
Частота                                  : 48,0 КГц
Частота кадров                           : 31,250 кадров/сек (1536 spf)
Битовая глубина                          : 16 бит
Метод сжатия                             : С потерями
Размер потока                            : 62,2 Мбайт (10%)
Язык                                     : English
ServiceKind/String                       : Complete Main
Default                                  : Нет
Forced                                   : Нет

Когда раздача ведётся путём добавления новых серий, при каждом добавлении создётся новый торрент. Чтобы начать докачку новой серии, пользователям необходимо сделать следующее:
(1) остановить скачивание,
(2) удалить старый торрент у себя из клиента (старые серии удалять не надо),
(3) скачать новый торрент и запустить его у себя в клиенте вместо старого, при этом указать клиенту путь в старую папку, куда и должно происходить скачивание новых серий.
Ваш клиент при этом должен произвести хеширование (проверку) старой папки (если не производит сам - помогите ему сделать это), и будет докачивать только те серии, которых у вас ещё нет. Старые серии при этом не удаляются, а продолжают раздаваться!
Eсли вы уже удалили старые серии, то предотвратить повторную закачку старых серий можно, отжав галочку в соответсвующих местах при запуске нового торрента. По возможности, желательно не удалять старые серии как можно дольше, чтобы релизёр не столько продолжал раздавать старые серии, а смог сконцентрироваться на новых.

Не забывайте говорить Спасибо. Не уходите с раздачи!   
Торрент: Зарегистрирован [20 янв 2018, 20:30] Для скачивания .torrent
необходима регистрация
Или скачать с помощью
MediaGet
Статус:
Проверен
 
.torrent скачан: 26 раз
Хэш: 116aa45b0dc395ae91be2134e065bdc847c758ae
Размер: 7.9 ГБ (8 484 108 088 байт)
   Стать Автором раздачи
   
Цитата
  • Похожие торренты
    Ответы
    Просмотры
    Последнее сообщение

Вернуться в Доктор Шанс / Chance

Кто сейчас на конференции

Сейчас эту тему просматривают: нет зарегистрированных пользователей и гости: 1