Последний корабль / The Last Ship / Сезон: 4 / Серии: 1-10 из 10 (Майкл Кэтлман, Джонатан Мостоу, Брэд Тёрнер) [2017, США, Фантастика, боевик, WEB-DL 720p] MVO (LostFilm) + Original + Sub (eng)

 Статистика раздачи 
Размер: 12.11 ГБ   |  Зарегистрирован: 20 янв 2018, 20:23   |   .torrent скачан: 3136 раз
Сидеров: 78  [ 0 байт/сек ]     Личеров: 40  [ 0 байт/сек ]  
  
Аватара пользователя
 
Раздал: 90.26 ГБ
Скачал: 15.93 ГБ
Ратио: 6.635
Сообщения: 6547
Стаж: 8 лет 4 месяца 25 дней

Последний корабль / The Last Ship
Год выпуска: 2017
Страна: США
Жанр: Фантастика, боевик
Продолжительность: 00:45:00
Перевод: Профессиональный (многоголосый закадровый) LostFilm
Режиссёр: Майкл Кэтлман, Джонатан Мостоу, Брэд Тёрнер
В ролях: Рона Митра, Эрик Дэйн, Адам Болдуин, Михаэлла МакМанус, Марисса Нейтлинг, Трэвис Ван Винкл, Чарльз Парнелл, Кристина Элмор, Джоко Симс, Джон Пайпер-Фергюсон, Кевин Майкл Мартин
Описание: «Последний корабль» — постапокалиптический экшен-триллер в лучших традициях телеканала SyFy, рассказывающий о том, как команда военного эсминца пытается найти лекарство от смертельного вируса, угрожающего уничтожить все человечество. Продюсером сериала выступил заслуженный голливудский кинематографист Майкл Бэй, проекты которого отличаются исключительной зрелищностью и эпичностью. Одноименный роман Уильяма Бринкли, положенный в основу сюжета, был восторженно принят критиками и поклонниками историй о мужестве военно-морского командования в экстренных ситуациях.

Ссылка на предыдущие и альтернативные раздачи
Качество: WEB-DL 720p
Контейнер: MKV
Видео: MPEG-4 AVC, 1280x720 (16:9), 23.976 fps, 3300 kbps, 0.146 bits/pixel
Аудио: 48 kHz, AC3, 2 ch, 384 kbps | Rus
Аудио: 48 kHz, EAC3, 6 ch, 640 kbps | Eng
Субтитры: Английские
Реклама: Полностью отсутствует
Релиз от:
General
Complete name : Downloads\The Last Ship (Season 04) WEBDL 720p GeneralFilm\The.Last.Ship.S04E01.720p.AMZN.WEBDL.GeneralFilm.mkv
Format : Matroska
Format version : Version 4 / Version 2
File size : 1.28 GiB
Duration : 42mn 5s
Overall bit rate mode : Variable
Overall bit rate : 4 339 Kbps
Encoded date : UTC 2017-09-11 05:50:33
Writing application : mkvmerge v7.7.0 ('Six Voices') 64bit built on Feb 28 2015 23:39:33
Writing library : libebml v1.3.1 + libmatroska v1.4.2
_STATISTICS_WRITING_APP : mkvmerge v7.7.0 ('Six Voices') 64bit built on Feb 28 2015 23:39:33
_STATISTICS_WRITING_DATE_UTC : 2017-09-11 05:50:33
_STATISTICS_TAGS : BPS DURATION NUMBER_OF_FRAMES NUMBER_OF_BYTES
DURATION : 00:42:05.600000000
NUMBER_OF_FRAMES : 78925
NUMBER_OF_BYTES : 121228800
Video #1
ID : 1
Format : AVC
Format/Info : Advanced Video Codec
Format profile : High@L3.1
Format settings, CABAC : Yes
Format settings, ReFrames : 5 frames
Codec ID : V_MPEG4/ISO/AVC
Duration : 42mn 5s
Bit rate mode : Variable
Bit rate : 3 229 Kbps
Maximum bit rate : 4 500 Kbps
Width : 1 280 pixels
Height : 720 pixels
Display aspect ratio : 16:9
Frame rate mode : Constant
Frame rate : 23.976 fps
Color space : YUV
Chroma subsampling : 4:2:0
Bit depth : 8 bits
Scan type : Progressive
Bits/(Pixel*Frame) : 0.146
Stream size : 972 MiB (74%)
Default : Yes
Forced : No
Color primaries : BT.709
Transfer characteristics : BT.709
Matrix coefficients : BT.709
Color range : Limited
Audio #2
ID : 2
Format : AC-3
Format/Info : Audio Coding 3
Mode extension : CM (complete main)
Format settings, Endianness : Big
Codec ID : A_AC3
Duration : 42mn 5s
Bit rate mode : Constant
Bit rate : 384 Kbps
Channel(s) : 2 channels
Channel positions : Front: L R
Sampling rate : 48.0 KHz
Bit depth : 16 bits
Compression mode : Lossy
Stream size : 116 MiB (9%)
Language : Russian
Default : Yes
Forced : No
Audio #3
ID : 3
Format : E-AC-3
Format/Info : Audio Coding 3
Format settings, Endianness : Big
Codec ID : A_EAC3
Duration : 42mn 5s
Bit rate mode : Constant
Bit rate : 640 Kbps
Channel(s) : 6 channels
Channel positions : Front: L C R, Side: L R, LFE
Sampling rate : 48.0 KHz
Compression mode : Lossy
Stream size : 193 MiB (15%)
Language : English
Default : No
Forced : No
Text #4
ID : 4
Format : UTF-8
Codec ID : S_TEXT/UTF8
Codec ID/Info : UTF-8 Plain Text
Language : English
Default : No
Forced : No
Не забывайте говорить Спасибо. Не уходите с раздачи!   
Торрент: Зарегистрирован [20 янв 2018, 20:23] Для скачивания .torrent
необходима регистрация
Или скачать с помощью
MediaGet
Статус:
Проверен
 
.torrent скачан: 3136 раз
Хэш: dc523bb1b8be6db64a61dc81bf52880715f418d0
Размер: 12.11 ГБ (13 004 991 527 байт)
   Стать Автором раздачи
   
Цитата
  • Похожие торренты
    Ответы
    Просмотры
    Последнее сообщение

Вернуться в Последний корабль / The Last Ship

Кто сейчас на конференции

Сейчас эту тему просматривают: нет зарегистрированных пользователей и гости: 1