Доктор Шанс / Chance / Сезон: 2 / Серии: 1-7 из 10 (Дэниэл Эттиэс, Леонард Абрахамсон, Майкл Леманн) [2017, США, триллер, драма, детектив, WEB-DL 1080p] MVO (NewStudio) + Original

 Статистика раздачи 
Размер: 12.15 ГБ   |  Зарегистрирован: 20 янв 2018, 20:19   |   .torrent скачан: 0 раз
Сидеров: 2  [ 0 байт/сек ]     Личеров: 0  [ 0 байт/сек ]  
  
Аватара пользователя
 
Раздал: 90.26 ГБ
Скачал: 15.93 ГБ
Ратио: 6.635
Сообщения: 6550
Стаж: 8 лет 3 месяца 23 дня


Доктор Шанс / Chance



Год выпуска: 2017
Страна: США | USA
Жанр: триллер, драма, детектив
Продолжительность: ~00:50:00
Перевод: Профессиональный (многоголосый закадровый) | NewStudio
Субтитры: есть
Режиссер: Дэниэл Эттиэс, Леонард Абрахамсон, Майкл Леманн
В ролях: Хью Лори, Дайан Фарр, Лиза Гэй Хэмилтон, Стефания Оуэн, Грета Ли, Гретчен Мол, Пол Адельштейн, Итан Сапли, Кларк Питерс и др.
Описание: В центре внимания оказывается персонаж, роль которого сыграл Хью Лори. Элдон Чэнс - нейропсихиатр, который работает на судебную организацию. Этот человек оказывается в эпицентре конфликта, связанного с коррупцией в правящих рядах. Главному герою приходится перейти через черту своих профессиональных обязательств ради просьбы одной безумно привлекательной пациентки. Однако вскоре несчастный Ченс попадает в разработку супруга этой женщины. Тот - полицейский, который считается одним из самых жестких и жестоких в своей профессии.
IMDB: 7.7/10 (5,648 votes)
КиноПоиск: 6.8/10 (1,895 голосов)

РЕЛИЗ от sergiy_psp
Добавлено озвучивание от NewStudio. Начало сезона!
Всем приятного просмотра! Работа со звуком: sergiy_psp. Нет Рекламы!

Источник: iTunes WEB-DL
Качество видео: WEB-DL 1080p
Формат: MKV
Кодек: H.264 @ AC3
Видео: 1920x1080 at 23.976 fps, MPEG-4 AVC, ~4500 kbps avg, 0.218 bit/pixel
Аудио Rus: 48 kHz, AC3, 2/0 (L,R) ch, ~192.00 kbps avg |Многоголосый закадровый, NewStudio|
Аудио Eng: 48 kHz, AC3, 2/0 (L,R) ch, ~192.00 kbps avg
Субтитры: Russian (forced)
✘Семпл✘
✘Все раздачи сериала✘
Код:
Код: Выделить всё
01. - 11.10.2017 - Многоосная система / Multiaxial System
02. - 11.10.2017 - Очень особенный лук / A Very Special Onion
03. - 11.10.2017 - Приключения Флиткрафта / The Flitcraft Parable
04. - 18.10.2017 - Механизм копирования / The Coping Mechanism
05. - 25.10.2017 - Собранные произведения Уильяма Шекспира / The Collected Works of William Shakespeare
06. - 00.00.2017 - Сокровища в баночках из глины / Treasures in Jars of Clay
07. - 00.00.2017 - Episode #1.07 / Episode #1.07
08. - 00.00.2017 - Episode #1.08 / Episode #1.08
09. - 00.00.2017 - Episode #1.09 / Episode #1.09
10. - 00.00.2017 - Episode #1.10 / Episode #1.10


Код:
Код: Выделить всё
Общее
Уникальный идентификатор                 : 242259866233580145947061168456278892719 (0xB6418D96030B5EE0844DE484C78260AF)
Полное имя                               : Chance.S02.1080p.WEB-DL.Rus.Eng.sergiy_psp\Chance.S02E01.1080p.WEB-DL.Rus.Eng.sergiy_psp.mkv
Формат                                   : Matroska
Версия формата                           : Version 4 / Version 2
Размер файла                             : 1,50 Гбайт
Продолжительность                        : 45 м. 17 с.
Общий поток                              : 4733 Кбит/сек
Дата кодирования                         : UTC 2017-10-28 15:02:42
Программа кодирования                    : mkvmerge v17.0.0 ('Be Ur Friend') 64-bit
Библиотека кодирования                   : libebml v1.3.5 + libmatroska v1.4.8
Видео
Идентификатор                            : 1
Формат                                   : AVC
Формат/Информация                        : Advanced Video Codec
Профиль формата                          : High@L4
Настройки формата                        : CABAC / 4 Ref Frames
Параметр CABAC формата                   : Да
Параметр RefFrames формата               : 4 кадра
Идентификатор кодека                     : V_MPEG4/ISO/AVC
Продолжительность                        : 45 м. 16 с.
Битрейт                                  : 4347 Кбит/сек
Ширина                                   : 1920 пикселей
Высота                                   : 1080 пикселей
Соотношение сторон                       : 16:9
Режим частоты кадров                     : Постоянный
Частота кадров                           : 23,976 (24000/1001) кадра/сек
Цветовое пространство                    : YUV
Субдискретизация насыщенности            : 4:2:0
Битовая глубина                          : 8 бит
Тип развёртки                            : Прогрессивная
Бит/(Пиксели*Кадры)                      : 0.087
Размер потока                            : 1,37 Гбайт (92%)
Заголовок                                : Chance.S02E01.1080p.WEB-DL.Rus.Eng.sergiy_psp
Язык                                     : English
Default                                  : Да
Forced                                   : Нет
Аудио #1
Идентификатор                            : 2
Формат                                   : AC-3
Формат/Информация                        : Audio Coding 3
Параметр Endianness формата              : Big
Идентификатор кодека                     : A_AC3
Продолжительность                        : 45 м. 16 с.
Вид битрейта                             : Постоянный
Битрейт                                  : 192 Кбит/сек
Каналы                                   : 2 канала
Расположение каналов                     : Front: L R
Частота                                  : 48,0 КГц
Частота кадров                           : 31,250 кадров/сек (1536 SPF)
Битовая глубина                          : 16 бит
Метод сжатия                             : С потерями
Размер потока                            : 62,2 Мбайт (4%)
Заголовок                                : Newstudio 2.0
Язык                                     : Russian
ServiceKind/String                       : Complete Main
Default                                  : Да
Forced                                   : Нет
Аудио #2
Идентификатор                            : 3
Формат                                   : AC-3
Формат/Информация                        : Audio Coding 3
Параметр Endianness формата              : Big
Идентификатор кодека                     : A_AC3
Продолжительность                        : 45 м. 17 с.
Вид битрейта                             : Постоянный
Битрейт                                  : 192 Кбит/сек
Каналы                                   : 2 канала
Расположение каналов                     : Front: L R
Частота                                  : 48,0 КГц
Частота кадров                           : 31,250 кадров/сек (1536 SPF)
Битовая глубина                          : 16 бит
Метод сжатия                             : С потерями
Размер потока                            : 62,2 Мбайт (4%)
Заголовок                                : Original 2.0
Язык                                     : English
ServiceKind/String                       : Complete Main
Default                                  : Нет
Forced                                   : Нет





✘Внимание✘


Внимание! Раздача ведётся путём добавления новых серий; при каждом добавлении создётся новый торрент. Чтобы начать докачку новой серии, пользователям необходимо сделать следующее:
(1) остановить скачивание,
(2) удалить старый торрент у себя из клиента (старые серии удалять не надо),
(3) скачать новый торрент и запустить его у себя в клиенте вместо старого, при этом указать клиенту путь в старую папку куда и должно происходить скачивание новых серий.
Ваш клиент при этом должен произвести хеширование (проверку) старой папки (если не производит сам - помогите ему сделать это), и будет докачивать только те серии которых у вас ещё нет. Старые серии при этом не удаляются, а продолжают раздаваться!
Eсли вы уже удалили старые серии, то предотвратить повторную закачку старых серий можно, отжав галочку в соответсвующих местах при запуске нового торрента.
Не забывайте говорить Спасибо. Не уходите с раздачи!   
Торрент: Зарегистрирован [20 янв 2018, 20:19] Для скачивания .torrent
необходима регистрация
Или скачать с помощью
MediaGet
Статус:
Проверен
 
.torrent скачан: 0 раз
Хэш: bbddad384a587159fbce48d322e2ff6829a6588b
Размер: 12.15 ГБ (13 042 638 874 байт)
   Стать Автором раздачи
   
Цитата
  • Похожие торренты
    Ответы
    Просмотры
    Последнее сообщение

Вернуться в Доктор Шанс / Chance

Кто сейчас на конференции

Сейчас эту тему просматривают: нет зарегистрированных пользователей и гости: 1