Мир Дикого Запада / Westworld / Сезон: 1 / Серии: 1-10 из 10 (Джонатан Нолан, Джонни Кэмпбелл, Ричард Дж. Льюис) [2016, США, фантастика, триллер, вестерн, WEBRip 720p] Dub (Кравец-рекордс) + Original + Subs (Eng)

 Статистика раздачи 
Размер: 32.39 ГБ   |  Зарегистрирован: 20 янв 2018, 20:18   |   .torrent скачан: 1 раз
Сидеров: 43  [ 0 байт/сек ]     Личеров: 11  [ 0 байт/сек ]  
  
Аватара пользователя
 
Раздал: 90.26 ГБ
Скачал: 15.93 ГБ
Ратио: 6.635
Сообщения: 6547
Стаж: 8 лет 11 месяцев 17 дней

Мир Дикого Запада / Westworld

Год выпуска: 2016
Страна: США
Жанр: фантастика, триллер, вестерн
Продолжительность: ~ 01:08:00
Перевод: Профессиональный (дублированный) | Кравец-рекордс
Режиссёр: Джонатан Нолан, Джонни Кэмпбелл, Ричард Дж. Льюис
В ролях: Энтони Хопкинс, Эван Рэйчел Вуд, Эд Харрис, Джеймс Марсден, Тэнди Ньютон, Джеффри Райт, Родриго Санторо, Шеннон Мари Вудворд, Ингрид Больсё Бердаль, Саймон Куотерман
Описание: Научно-фантастический триллер, апгрейд-версия одноименного фильма 1973 года, снятого Майклом Крайтоном (автор «Парка Юрского периода»). Для нового тысячелетия концепцию капитально переработали исполнительные продюсеры Джонатан Нолан («В поле зрения», «Темный рыцарь», «Интерстеллар») вместе с женой Лизой Джой и Джей Джей Абрамс («Остаться в живых», «Миссия невыполнима 3», «Стартрек: Бесконечность»). Получился дикий коктейль из «Бегущего по лезвию», «Черного зеркала», «Из машины», и, собственно, «Парка Юрского периода».
В центре внимания сериала — небольшой парк развлечений, который специализируется на показе крутых гаджетов, роботов и прочей техники, которая призвана помогать человечеству. В этом парке андроиды работают, как рабы людей, пытаясь сделать всё возможное, чтобы посетителям было комфортно. Однако однажды в их программе случается серьёзный сбой, который делает из механических существ настоящих опасных убийц, способных навести хаос на всей планете. Что же теперь делать? Неужели начинается апокалипсис?
Звезда сериала — Энтони Хопкинс, который всё-таки решился сыграть первую в своей кинокарьере роль на ТВ. Остальные актеры ему под стать — Эд Харрис («Бездна», «Шоу Трумана»), Джеймс Марсден («Люди Икс»), Эван Рэйчел Вуд («Настоящая кровь») и другие.
Ссылка на все раздачи сериала "Westworld"

by marchelush
Качество: WEBRip 720p
Контейнер: MKV
Видео: 1280x720, 23.976 fps, MPEG-4 AVC, ~5000 - 6000 kbps avg, 0.235 bit/pixel
Аудио Russian: 48 kHz, AC3, 3/2 (L,C,R,l,r) + LFE ch, 384.00 kbps avg | Кравец-рекордс
Аудио English: 48 kHz, E-AC3, 3/2 (L,C,R,l,r) + LFE ch, 640.00 kbps avg
Субтитры: Английские
Реклама: Отсутствует
01. The Original / Оригинал
02. Chestnut / Банальный сюжет
03. The Stray / Бродяга
04. Dissonance Theory / Теория Диссонанса
05. Contrapasso / Воздаяние
06. The Adversary
07. Trompe L'Oeil / Обман зрения
08. Trace Decay / Признаки разложения
09. The Well-Tempered Clavier / Хорошо темперированный клавир
10. The Bicameral Mind / Бикамеральный разум

Код: Выделить всё
Общее
Уникальный идентификатор                 : 249264759254355842383653236422822651434 (0xBB86A57A005D0A23A6DE0AFEA48CE62A)
Полное имя                               : E:\Movies\Westworld (Season 1) 720p WEBRip\Westworld.S01E01.720p.WEBRip.Rus.Eng-HDCLUB.mkv
Формат                                   : Matroska
Версия формата                           : Version 4 / Version 2
Размер файла                             : 3,11 Гбайт
Продолжительность                        : 1 ч. 11 м.
Общий поток                              : 6219 Кбит/сек
Название фильма                          : Westworld (2016) - Release for HDCLUB
Дата кодирования                         : UTC 2017-01-21 11:28:28
Программа кодирования                    : mkvmerge v8.1.0 ('Psychedelic Postcard') 32bit
Библиотека кодирования                   : libebml v1.3.1 + libmatroska v1.4.2
Видео
Идентификатор                            : 1
Формат                                   : AVC
Формат/Информация                        : Advanced Video Codec
Профиль формата                          : High@L4.1
Параметр CABAC формата                   : Да
Параметр ReFrames формата                : 9 кадров
Идентификатор кодека                     : V_MPEG4/ISO/AVC
Продолжительность                        : 1 ч. 11 м.
Битрейт                                  : 5193 Кбит/сек
Ширина                                   : 1280 пикселей
Высота                                   : 720 пикселей
Соотношение сторон                       : 16:9
Режим частоты кадров                     : Постоянный
Частота кадров                           : 23,976 (24000/1001) кадра/сек
Цветовое пространство                    : YUV
Субдискретизация насыщенности            : 4:2:0
Битовая глубина                          : 8 бит
Тип развёртки                            : Прогрессивная
Бит/(Пиксели*Кадры)                      : 0.235
Размер потока                            : 2,60 Гбайт (83%)
Заголовок                                : 01: The Original / Обновление
Язык                                     : English
Default                                  : Да
Forced                                   : Нет
Аудио #1
Идентификатор                            : 2
Формат                                   : AC-3
Формат/Информация                        : Audio Coding 3
Расширение режима                        : CM (complete main)
Параметр Endianness формата              : Big
Идентификатор кодека                     : A_AC3
Продолжительность                        : 1 ч. 11 м.
Вид битрейта                             : Постоянный
Битрейт                                  : 384 Кбит/сек
Каналы                                   : 6 каналов
Расположение каналов                     : Front: L C R, Side: L R, LFE
Частота                                  : 48,0 КГц
Частота кадров                           : 31,250 кадров/сек (1536 spf)
Битовая глубина                          : 16 бит
Метод сжатия                             : С потерями
Размер потока                            : 197 Мбайт (6%)
Заголовок                                : Кравец-рекордс
Язык                                     : Russian
Default                                  : Да
Forced                                   : Нет
Аудио #2
Идентификатор                            : 3
Формат                                   : E-AC-3
Формат/Информация                        : Enhanced Audio Coding 3
Параметр Endianness формата              : Big
Идентификатор кодека                     : A_EAC3
Продолжительность                        : 1 ч. 11 м.
Вид битрейта                             : Постоянный
Битрейт                                  : 640 Кбит/сек
Каналы                                   : 6 каналов
Расположение каналов                     : Front: L C R, Side: L R, LFE
Частота                                  : 48,0 КГц
Частота кадров                           : 187,500 кадров/сек (256 spf)
Метод сжатия                             : С потерями
Задержка видео                           : 21 мс.
Размер потока                            : 328 Мбайт (10%)
Язык                                     : English
Default                                  : Нет
Forced                                   : Нет
Текст
Идентификатор                            : 4
Формат                                   : UTF-8
Идентификатор кодека                     : S_TEXT/UTF8
Идентификатор кодека/Информация          : UTF-8 Plain Text
Продолжительность                        : 1 ч. 7 м.
Битрейт                                  : 54 бит/сек
Count of elements                        : 885
Размер потока                            : 26,8 Кбайт (0%)
Язык                                     : English
Default                                  : Нет
Forced                                   : Нет

Не забывайте говорить Спасибо. Не уходите с раздачи!   
Торрент: Зарегистрирован [20 янв 2018, 20:18]
Статус:
Проверен
 
.torrent скачан: 1 раз
Хэш: 308efb497eee4e0b35c7ab16a582b7a17afbc971
Размер: 32.39 ГБ (34 781 061 979 байт)
   Стать Автором раздачи
   
Цитата
  • Похожие торренты
    Ответы
    Просмотры
    Последнее сообщение

Вернуться в Мир Дикого запада / Westworld

Кто сейчас на конференции

Сейчас эту тему просматривают: нет зарегистрированных пользователей и гости: 1