Человек будущего / Future Man / Сезон: 1 / Серии: 1-13 из 13 (Ниша Ганатра, Эван Голдберг, Сет Роген) [2017, США, фантастика, комедия, WEB-DL 1080p] DVO (ViruseProject) + Original + Subs (Rus, Eng)

 Статистика раздачи 
Размер: 15.26 ГБ   |  Зарегистрирован: 20 янв 2018, 20:11   |   .torrent скачан: 0 раз
Сидеров: 10  [ 0 байт/сек ]     Личеров: 4  [ 0 байт/сек ]  
  
Аватара пользователя
 
Раздал: 90.26 ГБ
Скачал: 15.93 ГБ
Ратио: 6.635
Сообщения: 6547
Стаж: 8 лет 9 месяцев 24 дня

Человек будущего | Future Man

Год выпуска: 2017
Страна: США
Жанр: фантастика, комедия
Продолжительность: ~00:30:00
Перевод: Любительский (двухголосый закадровый) ViruseProject
Режиссёр: Ниша Ганатра, Эван Голдберг, Сет Роген
В ролях: Джош Хатчерсон, Дерек Уилсон, Эд Бегли мл., Дрю Джеймс и др.
Описание: Главный герой Джош все еще живет с родителями и подрабатывает в исследовательском центре. У Джоша низкая самооценка и плохо развиты коммуникативные навыки, поэтому юноша часто теряется в общении с женщинами. Единственное, в чем преуспевает герой, — это видеоигра «Биотические войны» действие которой происходит в мрачном постапокалипсисе, где его персонаж, Человек из будущего, спасает человечество. Когда Джош проходит последний уровень, ему наносят визит персонажи «Биотических войн», утверждающие, что игра была всего лишь тренингом и теперь герой избран для того, чтобы совершить путешествие в прошлое и помочь им спасти мир. Готов ли Джош к этому? Конечно, нет.
Ссылка на предыдущие и альтернативные раздачи
Качество: WEB-DL 1080p
Контейнер: MKV
Видео: 1920 x 1080 (16:9), ~4500 Kbps, 23.976 fps, 8 bits
Аудио 1: 48 kHz, AC3 Dolby Digital, 2/0 (L,R) ch, 192 kb/s
Аудио 2: 48 kHz, AAC, 2 channels, 64.0 kb/s
Субтитры: русские (ViruseProject), английские
Реклама: В аудио в начале и конце по 12 секунд.
Внимание! Раздача ведётся путём добавления новых серий; при каждом добавлении создаётся новый торрент. Чтобы начать докачку новой серии, пользователям необходимо сделать следующее:
(1) остановить скачивание,
(2) удалить старый торрент у себя из клиента (старые серии удалять не надо),
(3) скачать новый торрент и запустить его у себя в клиенте вместо старого, при этом указать клиенту путь в старую папку куда и должно происходить скачивание новых серий.
Ваш клиент при этом должен произвести хеширование (проверку) старой папки (если не производит сам - помогите ему сделать это), и будет докачивать только те серии которых у вас ещё нет. Старые серии при этом не удаляются, а продолжают раздаваться!
Eсли вы уже удалили старые серии, то предотвратить повторную закачку старых серий можно, отжав галочку в соответствующих местах при запуске нового торрента. По возможности, желательно не удалять старые серии как можно дольше чтобы релизёр не столько продолжал раздавать старые серии, а смог сконцентрироваться на новых.
General
Unique ID : 213983211133430175737695067335542631240 (0xA0FBAADA30669FC7ADE00018EA42EB48)
Complete name : E:\Future.Man.S01E01.1080p.ViruseProject.mkv
Format : Matroska
Format version : Version 4 / Version 2
File size : 1.01 GiB
Duration : 30 min 12 s
Overall bit rate : 4 777 kb/s
Encoded date : UTC 2017-11-16 14:20:07
Writing application : mkvmerge v8.3.0 ('Over the Horizon') 64bit
Writing library : libebml v1.3.1 + libmatroska v1.4.2
Video
ID : 1
Format : AVC
Format/Info : Advanced Video Codec
Format profile : High@L4
Format settings : CABAC / 4 Ref Frames
Format settings, CABAC : Yes
Format settings, ReFrames : 4 frames
Codec ID : V_MPEG4/ISO/AVC
Duration : 30 min 12 s
Bit rate : 4 519 kb/s
Width : 1 920 pixels
Height : 1 080 pixels
Display aspect ratio : 16:9
Frame rate mode : Constant
Frame rate : 23.976 FPS
Color space : YUV
Chroma subsampling : 4:2:0
Bit depth : 8 bits
Scan type : Progressive
Bits/(Pixel*Frame) : 0.091
Stream size : 976 MiB (95%)
Default : Yes
Forced : No
Audio #1
ID : 2
Format : AC-3
Format/Info : Audio Coding 3
Codec ID : A_AC3
Duration : 30 min 12 s
Bit rate mode : Constant
Bit rate : 192 kb/s
Channel(s) : 2 channels
Channel positions : Front: L R
Sampling rate : 48.0 kHz
Frame rate : 31.250 FPS (1536 SPF)
Bit depth : 16 bits
Compression mode : Lossy
Stream size : 41.5 MiB (4%)
Title : ViruseProject
Language : Russian
Service kind : Complete Main
Default : No
Forced : No
Audio #2
ID : 3
Format : AAC
Format/Info : Advanced Audio Codec
Format profile : HE-AAC / LC
Format settings : Explicit
Codec ID : A_AAC-2
Duration : 30 min 12 s
Bit rate : 64.0 kb/s
Channel(s) : 2 channels
Channel positions : Front: L R
Sampling rate : 48.0 kHz / 24.0 kHz
Frame rate : 23.438 FPS (1024 SPF)
Compression mode : Lossy
Stream size : 13.8 MiB (1%)
Language : English
Default : No
Forced : No
Text #1
ID : 4
Format : UTF-8
Codec ID : S_TEXT/UTF8
Codec ID/Info : UTF-8 Plain Text
Duration : 29 min 34 s
Bit rate : 153 b/s
Count of elements : 589
Stream size : 33.3 KiB (0%)
Title : ViruseProject
Language : Russian
Default : No
Forced : No
Text #2
ID : 5
Format : UTF-8
Codec ID : S_TEXT/UTF8
Codec ID/Info : UTF-8 Plain Text
Duration : 30 min 7 s
Bit rate : 95 b/s
Count of elements : 791
Stream size : 21.1 KiB (0%)
Language : English
Default : No
Forced : No
Не забывайте говорить Спасибо. Не уходите с раздачи!   
Торрент: Зарегистрирован [20 янв 2018, 20:11]
Статус:
Проверен
 
.torrent скачан: 0 раз
Хэш: 212653b267caa21d7c4c67a454f930ebb051d26a
Размер: 15.26 ГБ (16 382 417 383 байт)
   Стать Автором раздачи
   
Цитата
  • Похожие торренты
    Ответы
    Просмотры
    Последнее сообщение

Вернуться в Человек будущего / Future Man

Кто сейчас на конференции

Сейчас эту тему просматривают: нет зарегистрированных пользователей и гости: 1