Форс-мажоры / Костюмы в законе / Suits / Сезон: 1 / Серии: 1-12 (12) (Кевин Брэй, Джон Скотт, Майкл Смит) [2011, США, драма, WEB-DL 720p] MVO (Первый канал)

 Статистика раздачи 
Размер: 17.46 ГБ   |  Зарегистрирован: 20 янв 2018, 20:08   |   .torrent скачан: 7 раз
Сидеров: 7  [ 0 байт/сек ]     Личеров: 2  [ 0 байт/сек ]  
  
Аватара пользователя
 
Раздал: 90.26 ГБ
Скачал: 15.93 ГБ
Ратио: 6.635
Сообщения: 6547
Стаж: 8 лет 8 месяцев 22 дня



Форс-мажоры / Костюмы в законе / Suits


Год выпуска: 2011
Страна: США | USA Network
Жанр: Драма
Продолжительность: ~ 42 минуты
Перевод: Профессиональный (многоголосый, закадровый) - Первый канал
Субтитры: Нет
Режиссёр: Кевин Брэй, Джон Скотт и др.
В ролях: Гэбриел Махт, Патрик Дж. Адамс, Рик Хоффман, Меган Маркл, Сара Рафферти, Джина Торрес, Ванесса Рэй, Том Липински, Макс Топплин, Ребекка Скул, Джулиан ДеЗотти, Бен Льюис и др.
Описание: Убегая после неудачной попытки сбыта наркотиков, юрист-самоучка Майк Росс, выдающий себя за выпускника Гарварда, попадает на собеседование к одному из лучших адвокатов по сделкам Нью-Йорка Харви Спектру. Устав от скучных соискателей, мечтающих «верой и правдой служить букве закона», Харви рискует и нанимает Майка: у парня врожденный талант и фотографическая память. Так рождается один из самых неоднозначных, но, в то же время, и самых блестящих тандемов законников на Манхэттене.
Качество: WEB-DL 720p
Формат: MKV
Видео кодек: H.264
Аудио кодек: AC3
Видео: 1280x720 (16:9), 23.976 fps, ~4000 kbps, ~0.180 bit/pixel
Аудио Rus: 48 kHz, 2 ch, ~192 kbps |Первый канал|
Аудио Eng: 48 kHz, 6 ch, ~384 kbps |Original|

Озвучка: Первый канал
Монтаж и работа со звуком: zhbanochek, jugin
Все раздачи сериала / Сэмпл / ImDB / Кинопоиск

Pilot
Errors and Omissions
Inside Track
Dirty Little Secrets
Bail Out
Tricks of the Trade
Play the Man
Identity Crisis
Undefeated
The Shelf Life
Rules of the Game
[*]Dog Fight



Общее
Уникальный идентификатор : 195957369341612553734873249504447667106 (0x936C043C3782F525AE25C4C2353B9BA2)
Формат : Matroska
Размер файла : 2,29 Гбайт
Продолжительность : 1 ч. 12 м.
Общий поток : 4527 Кбит/сек
Название фильма : Suits S01E01 by TeddyBlue
Дата кодирования : UTC 2011-09-27 10:25:53
Программа кодирования : mkvmerge v2.9.0 ('Moanin'') built on May 22 2009 17:46:31
Библиотека кодирования : libebml v0.7.7 + libmatroska v0.8.1
Видео
Идентификатор : 1
Формат : AVC
Формат/Информация : Advanced Video Codec
Профиль формата : High@L3.1
Параметр CABAC формата : Нет
Параметр ReFrames формата : 2 кадра
Параметры GOP формата : M=2, N=24
Идентификатор кодека : V_MPEG4/ISO/AVC
Продолжительность : 1 ч. 12 м.
Битрейт : 3861 Кбит/сек
Ширина : 1280 пикс.
Высота : 720 пикс.
Соотношение сторон : 16:9
Частота кадров : 23,976 кадр/сек
Цветовое пространство : YUV
Подвыборка цветности : 4:2:0
Битовая глубина : 8 бит
Тип развёртки : Прогрессивная
Бит/(Пиксели*Кадры) : 0.175
Размер потока : 1,95 Гбайт (85%)
Язык : English
Основные цвета : BT.709-5, BT.1361, IEC 61966-2-4, SMPTE RP177
Характеристики трансфера : BT.709-5, BT.1361
Коэффициенты матрицы : BT.709-5, BT.1361, IEC 61966-2-4 709, SMPTE RP177
Аудио #1
Идентификатор : 2
Формат : AC-3
Формат/Информация : Audio Coding 3
Расширение режима : CM (complete main)
Идентификатор кодека : A_AC3
Продолжительность : 1 ч. 12 м.
Вид битрейта : Постоянный
Битрейт : 192 Кбит/сек
Каналы : 2 канала
Расположение каналов : Front: L R
Частота : 48,0 КГц
Битовая глубина : 16 бит
Метод сжатия : С потерями
Размер потока : 99,4 Мбайт (4%)
Язык : Russian
Аудио #2
Идентификатор : 3
Формат : AC-3
Формат/Информация : Audio Coding 3
Расширение режима : CM (complete main)
Идентификатор кодека : A_AC3
Продолжительность : 1 ч. 12 м.
Вид битрейта : Постоянный
Битрейт : 384 Кбит/сек
Каналы : 6 каналов
Расположение каналов : Front: L C R, Side: L R, LFE
Частота : 48,0 КГц
Битовая глубина : 16 бит
Метод сжатия : С потерями
Размер потока : 199 Мбайт (8%)
Язык : English
Внимание! Раздача ведётся путём добавления новых серий; при каждом добавлении создётся новый торрент. Чтобы начать докачку новой серии, пользователям необходимо сделать следующее:

1) остановить скачивание,
2) удалить старый торрент у себя из клиента (старые серии удалять не надо),
3) скачать новый торрент и запустить его у себя в клиенте вместо старого, при этом указать клиенту путь в старую папку куда и должно происходить скачивание новых серий.
Ваш клиент при этом должен произвести хеширование (проверку) старой папки (если не производит сам - помогите ему сделать это), и будет докачивать только те серии которых у вас ещё нет. Старые серии при этом не удаляются, а продолжают раздаваться!
Eсли вы уже удалили старые серии, то предотвратить повторную закачку старых серий можно, отжав галочку в соответсвующих местах при запуске нового торрента.


Не забывайте говорить Спасибо. Не уходите с раздачи!   
Торрент: Зарегистрирован [20 янв 2018, 20:08]
Статус:
Проверен
 
.torrent скачан: 7 раз
Хэш: d8289d53efd5f7c84a0d6d358bac3ca7c359dde8
Размер: 17.46 ГБ (18 750 294 892 байт)
   Стать Автором раздачи
   
Цитата
  • Похожие торренты
    Ответы
    Просмотры
    Последнее сообщение

Вернуться в Форс-мажоры / Suits

Кто сейчас на конференции

Сейчас эту тему просматривают: нет зарегистрированных пользователей и гости: 1