Безумцы / Mad Men / Сезон 3 / Серии 1-13 (13) / ( Тим Хантер / Tim Hunter , Мэттью Уэйнер / Matthew Weiner ) [2009, США, драма, BDRip 720p]

 Статистика раздачи 
Размер: 30.43 ГБ   |  Зарегистрирован: 20 янв 2018, 19:57   |   .torrent скачан: 0 раз
Сидеров: 14  [ 0 байт/сек ]     Личеров: 4  [ 0 байт/сек ]  
  
Аватара пользователя
 
Раздал: 90.26 ГБ
Скачал: 15.93 ГБ
Ратио: 6.635
Сообщения: 6547
Стаж: 8 лет 8 месяцев 20 дней

Безумцы (Люди с Медисон-авеню) / Mad Men. Сезон 3


Год выпуска: 2009
Страна: США
Жанр: драма, исторический
Продолжительность: 45 минут
Перевод: Профессиональный (многоголосый, закадровый, FOX Life)
Русские субтитры: есть
Английские субтитры: есть

Режиссер: Фил Абрахам, Мэттью Уэйнер, Лесли Линка Глаттер и др.
В ролях: Джон Хэмм, Элизабет Мосс, Винсент Картайзер, Джэньюэри Джонс, Кристина Хендрикс, Брайан Бэтт, Michael Gladis, Аарон Стэтон, Рич Соммер, Джон Слэттери

Описание: Нью-Йорк 1960-х годов. В центре внимания Рекламное Агентство Стерлинга-Купера и его креативный директор — мастер манипуляции и интриг — Дон Дрейпер. Находясь на вершине карьеры, он противостоит конкурентам, стараясь сберечь своё положение в компании.
«Безумцы» (Mad Men) - этот термин появился в 1950-х годах для обозначения топ-менеджеров рекламного бизнеса с Мэдисон Авеню. Они сами его придумали.

Дополнительно: 8.9/10 kinopoisk.ru: 8.000 (132)
Дорожки с многоголосым озвучанием любезно предоставила vonkak. Огромная ей благодарность .
Рипы TOPAZ. Совместимы с DXVA.

Размер: 30 Гб
Качество: BDRip
Видеокодек: x264
Аудио кодек: AC3, DTS
Видео: 1280х720 @ 23.976 fps ~4700-5000 Kbps 0.20-0.22 b/p*f x264 MPEG-4 AVC
Аудио #1: DD AC3 2.0 192 kbps (FOX Life)
Аудио #2: DTS 5.1 1536 kbps (оригинал)
Субтитры: русские (ASS, со стилизованными вступительными титрами), английские (ASS), английские (SRT)
S03E01 Out of Town / Командировка
S03E02 Love Among the Ruins / Любовь среди руин
S03E03 My Old Kentucky Home / Мой дом в Кентуки
S03E04 Arrangements, The / Распоряжения
S03E05 Fog, The / Туман
S03E06 Guy Walks Into an Advertising Agency / Новичок Гай
S03E07 Seven Twenty Three / Контракт
S03E08 Souvenir / Сувенир
S03E09 Wee Small Hours / В недолгие часы
S03E10 Color Blue, The / Синий цвет
S03E11 Gypsy and the Hobo, The / Цыганка и бродяга
S03E12 Grown-Ups, The / Взрослые люди
[*]S03E13 Shut the Door. Have a Seat / Закрой дверь. Садись
Код:
Код: Выделить всё
General
Complete name                    : Mad Men.s03e01.rus.eng.sub - Out of Town (Командировка).mkv
Format                           : Matroska
File size                        : 2.25 GiB
Duration                         : 47mn 51s
Overall bit rate                 : 6 732 Kbps
Movie name                       : Безумцы (Люди с Мэдисон-авеню) / Mad Men (Сезон 3. Эпизод 1. "Out of Town" / "Командировка")
Encoded date                     : UTC 2010-04-14 15:50:41
Writing application              : mkvmerge v3.0.0 ('Hang up your Hang-Ups') built on Jan  7 2010 13:44:29
Writing library                  : libebml v0.7.8 + libmatroska v0.8.1
Cover                            : Yes / Yes / Yes / Yes / Yes
Video
ID                               : 1
Format                           : AVC
Format/Info                      : Advanced Video Codec
Format profile                   : High@L3.1
Format settings, CABAC           : Yes
Format settings, ReFrames        : 5 frames
Muxing mode                      : Container profile=Unknown@3.1
Codec ID                         : V_MPEG4/ISO/AVC
Duration                         : 47mn 51s
Bit rate                         : 5 094 Kbps
Width                            : 1 280 pixels
Height                           : 720 pixels
Display aspect ratio             : 16:9
Frame rate                       : 23.976 fps
Color space                      : YUV
Chroma subsampling               : 4:2:0
Bit depth                        : 8 bits
Scan type                        : Progressive
Bits/(Pixel*Frame)               : 0.231
Stream size                      : 1.64 GiB (73%)
Title                            : 1280х720 @ 23.976 fps ~4794 Kbps 0.231 b/p*f x264 MPEG-4 AVC
Writing library                  : x264 core 89 r1471M 1144615
Encoding settings                : cabac=1 / ref=5 / deblock=1:0:0 / analyse=0x3:0x113 / me=umh / subme=7 / psy=1 / psy_rd=1.00:0.20 / mixed_ref=1 / me_range=16 / chroma_me=1 / trellis=1 / 8x8dct=1 / cqm=0 / deadzone=21,11 / fast_pskip=1 / chroma_qp_offset=-3 / threads=6 / sliced_threads=0 / nr=0 / decimate=1 / interlaced=0 / constrained_intra=0 / bframes=3 / b_pyramid=2 / b_adapt=1 / b_bias=0 / direct=3 / wpredb=1 / wpredp=0 / keyint=250 / keyint_min=25 / scenecut=40 / intra_refresh=0 / rc_lookahead=40 / rc=2pass / mbtree=1 / bitrate=5094 / ratetol=1.0 / qcomp=0.60 / qpmin=10 / qpmax=51 / qpstep=4 / cplxblur=20.0 / qblur=0.5 / ip_ratio=1.40 / aq=1:1.00 / pulldown=0
Language                         : English
Audio #1
ID                               : 2
Format                           : AC-3
Format/Info                      : Audio Coding 3
Format profile                   : Dolby Digital
Mode extension                   : CM (complete main)
Codec ID                         : A_AC3
Duration                         : 47mn 51s
Bit rate mode                    : Constant
Bit rate                         : 192 Kbps
Channel(s)                       : 2 channels
Channel positions                : Front: L R
Sampling rate                    : 48.0 KHz
Stream size                      : 65.7 MiB (3%)
Title                            : Профессиональный (многоголосый, закадровый, FOX Life) (AС3 2.0 Ch 48KHz 192 Kbps)
Language                         : Russian
Audio #2
ID                               : 5
Format                           : DTS
Format/Info                      : Digital Theater Systems
Codec ID                         : A_DTS
Duration                         : 47mn 51s
Bit rate mode                    : Constant
Bit rate                         : 1 510 Kbps
Channel(s)                       : 6 channels
Channel positions                : Front: L C R, Side: L R, LFE
Sampling rate                    : 48.0 KHz
Bit depth                        : 24 bits
Stream size                      : 517 MiB (22%)
Title                            : Оригинальная (английская) звуковая дорожка (DTS 5.1 Ch 48KHz 1536 Kbps)
Language                         : English
Text #1
ID                               : 3
Format                           : ASS
Codec ID                         : S_TEXT/ASS
Codec ID/Info                    : Advanced Sub Station Alpha
Title                            : Русские субтитры (ASS)
Language                         : Russian
Text #2
ID                               : 4
Format                           : ASS
Codec ID                         : S_TEXT/ASS
Codec ID/Info                    : Advanced Sub Station Alpha
Title                            : Английские субтитры (ASS)
Language                         : English
Text #3
ID                               : 6
Format                           : UTF-8
Codec ID                         : S_TEXT/UTF8
Codec ID/Info                    : UTF-8 Plain Text
Title                            : Английские субтитры (SRT)
Language                         : English
Menu
00:00:00.000                     : en:00:00:00.000
00:00:38.664                     : en:00:00:38.664
00:16:53.137                     : en:00:16:53.137
00:30:34.708                     : en:00:30:34.708
00:46:26.784                     : en:00:46:26.784

Внимание! Раздача ведётся путём добавления новых серий; при каждом добавлении создётся новый торрент. Чтобы начать докачку новой серии, пользователям необходимо сделать следующее: (1) остановить скачивание, (2) удалить старый торрент у себя из клиента (старые серии удалять не надо), (3) скачать новый торрент и запустить его у себя в клиенте вместо старого, при этом указать клиенту путь в старую папку куда и должно происходить скачивание новых серий.
Ваш клиент при этом должен произвести хеширование (проверку) старой папки (если не производит сам - помогите ему сделать это), и будет докачивать только те серии которых у вас ещё нет. Старые серии при этом не удаляются, а продолжают раздаваться!
Eсли вы уже удалили старые серии, то предотвратить повторную закачку старых серий можно, отжав галочку в соответсвующих местах при запуске нового торрента. По возможности, желательно не удалять старые серии как можно дольше чтобы релизёр не столько продолжал раздавать старые серии, а смог сконцентрироваться на новых.
минутный образец
Предыдущие и альтернативные раздачи...
Раздача обновлена: добавлен финальный эпизод
Не забывайте говорить Спасибо. Не уходите с раздачи!   
Торрент: Зарегистрирован [20 янв 2018, 19:57]
Статус:
Проверен
 
.torrent скачан: 0 раз
Хэш: 24c8c9f200beea0ecc029afe2de72645eafb1375
Размер: 30.43 ГБ (32 670 554 234 байт)
   Стать Автором раздачи
   
Цитата

Вернуться в Безумцы / Mad Men

Кто сейчас на конференции

Сейчас эту тему просматривают: нет зарегистрированных пользователей и гости: 1