(Jazz) [CD] Cherkasy Jazz Quintet - Верни мне музыку - 2014, FLAC (image+.cue), lossless

 Статистика раздачи 
Размер: 380.92 МБ   |  Зарегистрирован: 23 июн 2018, 23:12   |   .torrent скачан: 0 раз
Сидеров: 2  [ 0 байт/сек ]     Личеров: 0  [ 0 байт/сек ]  
  
Аватара пользователя
 
Раздал: 2.75 ТБ
Скачал: 89.62 ГБ
Ратио: 31.394
Сообщения: 236069
Стаж: 3 года 7 месяцев 20 дней

Cherkasy Jazz Quintet / Верни мне музыку
Жанр: Jazz
Носитель: CD
Страна-производитель диска (релиза): Украина
Год издания: 2014
Издатель (лейбл): Not On Label
Страна исполнителя (группы): Украина
Аудиокодек: FLAC (*.flac)
Тип рипа: image+.cue
Битрейт аудио: lossless
Продолжительность: 01:01:02
Источник (релизер): AndyN
Наличие сканов в содержимом раздачи: да
Треклист:
1 Верни мне музыку (Арно Бабаджанян) 5:19
2 Три года ты мне снилась (Никита Богословский) 6:13
3 Прощание (Юрий Саульский) 5:37
4 Облетают последние маки (Андрей Петров)4:59
5 Улетай, туча (Виктор Резников) 5:34
6 Для моей любимой (Энвер Измайлов) 5:31
7 Ключик-блюз (Сергей Крашенинников) 5:16
8 Лестница на седьмое небо (Давид Азарян) 5:47
9 Стоят девчонки (Александр Колкер) 4:18
10 А снег идет... (Андрей Эшпай) 8:57
11 Автострада (Даниил Крамер) 3:04
Код: Выделить всё
Exact Audio Copy V1.3 from 2. September 2016
Отчёт EAC об извлечении, выполненном 22. апреля 2018, 20:16
Cherkasy Jazz Quintet / Return music to me
Дисковод: hp      DVDRAM GT50N   Adapter: 1  ID: 0
Режим чтения                 : Достоверность
Использование точного потока : Да
Отключение кэша аудио        : Да
Использование указателей C2  : Нет
Коррекция смещения при чтении                     : 103
Способность читать области Lead-in и Lead-out     : Нет
Заполнение пропущенных сэмплов тишиной            : Да
Удаление блоков с тишиной в начале и конце        : Нет
При вычислениях CRC использовались нулевые сэмплы : Да
Интерфейс                                         : Встроенный Win32-интерфейс для Win NT/2000
Выходной формат          : Пользовательский кодировщик
Выбранный битрейт        : 128 kBit/s
Качество                 : Высокий
Добавление ID3-тега      : Нет
Утилита сжатия           : C:\Program Files (x86)\Exact Audio Copy\Flac\flac.exe
Дополнительные параметры : -V -8 %source%
TOC извлечённого CD
     Трек |   Старт  | Длительность | Начальный сектор | Конечный сектор
    ---------------------------------------------------------------------
       1  |  0:00.00 |    5:21.57   |           0      |      24131
       2  |  5:21.57 |    6:15.65   |       24132      |      52321
       3  | 11:37.47 |    5:39.31   |       52322      |      77777
       4  | 17:17.03 |    5:01.64   |       77778      |     100416
       5  | 22:18.67 |    5:36.50   |      100417      |     125666
       6  | 27:55.42 |    5:33.44   |      125667      |     150685
       7  | 33:29.11 |    5:18.55   |      150686      |     174590
       8  | 38:47.66 |    5:49.66   |      174591      |     200831
       9  | 44:37.57 |    4:20.38   |      200832      |     220369
      10  | 48:58.20 |    8:59.67   |      220370      |     260861
      11  | 57:58.12 |    3:04.00   |      260862      |     274661
Характеристики диапазона извлечения и сообщения об ошибках
Выбранный диапазон
     Имя файла C:\MyDocum\Audio\Cherkasy Jazz Quintet - Return music to me\Cherkasy Jazz Quintet - Return music to me.wav
     Пиковый уровень 100.0 %
     Скорость извлечения 4.3 X
     Качество диапазона 100.0 %
     CRC теста 32D2A249
     CRC копии 32D2A249
     Копирование... OK
Ошибок не произошло
AccurateRip: сводка
Трек  1  отсутствует в базе данных
Трек  2  отсутствует в базе данных
Трек  3  отсутствует в базе данных
Трек  4  отсутствует в базе данных
Трек  5  отсутствует в базе данных
Трек  6  отсутствует в базе данных
Трек  7  отсутствует в базе данных
Трек  8  отсутствует в базе данных
Трек  9  отсутствует в базе данных
Трек 10  отсутствует в базе данных
Трек 11  отсутствует в базе данных
Ни одного трека нет в базе AccurateRip
Конец отчёта
==== Контрольная сумма отчёта 7DF7E314740A5F45F472EA186E0BB69F1DAF843992A03BE6B81E51C8EC80EC10 ====
Код: Выделить всё
REM GENRE Jazz
REM DATE 2014
REM DISCID 960E4E0B
REM COMMENT "ExactAudioCopy v1.3"
PERFORMER "Cherkasy Jazz Quintet"
TITLE "Return music to me"
REM COMPOSER ""
FILE "Cherkasy Jazz Quintet - Return music to me.flac" WAVE
  TRACK 01 AUDIO
    TITLE "Верни мне музыку"
    PERFORMER "Cherkasy Jazz Quintet"
    REM COMPOSER ""
    INDEX 01 00:00:00
  TRACK 02 AUDIO
    TITLE "Три года ты мне снилась"
    PERFORMER "Cherkasy Jazz Quintet"
    REM COMPOSER ""
    INDEX 01 05:21:57
  TRACK 03 AUDIO
    TITLE "Прощание"
    PERFORMER "Cherkasy Jazz Quintet"
    REM COMPOSER ""
    INDEX 01 11:37:47
  TRACK 04 AUDIO
    TITLE "Облетают последние маки"
    PERFORMER "Cherkasy Jazz Quintet"
    REM COMPOSER ""
    INDEX 01 17:17:03
  TRACK 05 AUDIO
    TITLE "Улетай, туча"
    PERFORMER "Cherkasy Jazz Quintet"
    REM COMPOSER ""
    INDEX 01 22:18:67
  TRACK 06 AUDIO
    TITLE "Для моей любимой"
    PERFORMER "Cherkasy Jazz Quintet"
    REM COMPOSER ""
    INDEX 01 27:55:42
  TRACK 07 AUDIO
    TITLE "Ключик-блюз"
    PERFORMER "Cherkasy Jazz Quintet"
    REM COMPOSER ""
    INDEX 01 33:29:11
  TRACK 08 AUDIO
    TITLE "Лестница на седьмое небо"
    PERFORMER "Cherkasy Jazz Quintet"
    REM COMPOSER ""
    INDEX 01 38:47:66
  TRACK 09 AUDIO
    TITLE "Стоят девчонки"
    PERFORMER "Cherkasy Jazz Quintet"
    REM COMPOSER ""
    INDEX 01 44:37:57
  TRACK 10 AUDIO
    TITLE "А снег идет..."
    PERFORMER "Cherkasy Jazz Quintet"
    REM COMPOSER ""
    INDEX 01 48:58:20
  TRACK 11 AUDIO
    TITLE "Автострада"
    PERFORMER "Cherkasy Jazz Quintet"
    REM COMPOSER ""
    INDEX 01 57:58:12
Участники квинтета живут и работают в Черкассах. В программе коллектива - классический хард-боп 50-60-х, произведения Ли Моргана (Lee Morgan), Хораса Силвера (Horace Silver), обработки джазовых стандартов в хард-боповом стиле. Порой музыканты обращаются к идиоматике группы "Brecker Brothers".
География выездных фестивалей у квинтета весьма обширная: Cherkasy Jazz Quintet участвовал почти во всех джазовых фестивалях Украины.
Но главное - его участники сосредоточены на популяризации джаза в родных пенатах. Регулярно квинтет выступает с концертами в клубах Черкасс; лидер группы, Сергей Крашенинников, является организатором черкасских джазовых фестивалей "Джаз-Дилижанс", "Черкасские джазовые дни", ряда джем-сешнов и встреч с известными украинскими и зарубежными музыкантами.
Recorded March. 17-19, 2014 at "Green Sound" Studio, Cherkasy, Ukraine
---
"Замечательный коллектив Cherkasy Jazz Quintet Сергея Крашенинникова в 2014-м году отмечает свой 10-летний юбилей. "Верни мне музыку" – уже седьмой их альбом... Произведения, записанные на этом диске, мягко говоря, необычны для классического (по составу) джазового квинтета, к тому же являющегося адептом традиционного хард-бопа.
Во-первых, здесь нет привычных "иностранных джазовых" авторов.
Во-вторых: для импровизаций взяты мелодии из разных стилей, и даже разных "музыкальных эпох", приведенных к одному джазовому знаменателю.
И, в-третьих: содержание этого диска полно музыкальных цитат, изобилует остроумными джазовыми идиомами. Этакая смелая эклектичность (в хорошем смысле). Результат – вашему вниманию. Enjoy!"
(Артур Оганесян, Ольга Яловенко)
Валерий Кириченко - труба;
Николай Евпак - тенор-саксофон;
Александр Шнайдер - контрабас;
Александр Черкашин - ударные;
Сергей Крашенинников - фортепиано, руководитель.
Не забывайте говорить Спасибо. Не уходите с раздачи!   
Торрент: Зарегистрирован [23 июн 2018, 23:12]
Статус:
Проверен
 
.torrent скачан: 0 раз
Хэш: 44284d66a814e8620bdd79274d2a1629dfc1b775
Размер: 380.92 МБ (399 428 469 байт)
   Стать Автором раздачи
   
Ничто так не успокаивает, как инструктаж по технике безопасности.
Цитата

Вернуться в Music from other genres

Кто сейчас на конференции

Сейчас эту тему просматривают: нет зарегистрированных пользователей и гости: 1