Форс-мажоры / Костюмы в законе / Suits / Сезон: 1 / Серии: 1-12 (12) (Кевин Брэй, Джон Скотт, Майкл Смит) [2011, США, Драма, WEB-DL 720p] DVO (Gravi-TV) + Original

 Статистика раздачи 
Размер: 18.14 ГБ   |  Зарегистрирован: 20 янв 2018, 19:45   |   .torrent скачан: 2 раз
Сидеров: 2  [ 0 байт/сек ]     Личеров: 2  [ 0 байт/сек ]  
  
Аватара пользователя
 
Раздал: 90.26 ГБ
Скачал: 15.93 ГБ
Ратио: 6.635
Сообщения: 6547
Стаж: 8 лет 8 месяцев 22 дня



Костюмы в законе / Suits


Год выпуска: 2011
Страна: США
Жанр: Драма
Продолжительность: ~ 42 минуты
Перевод: Любительский (двухголосый закадровый) - Gravi-TV
Субтитры: Нет
Режиссёр: Кевин Брэй, Джон Скотт
В ролях: Патрик Дж. Адамс, Гэбриел Махт, Меган Маркл, Джина Торрес, Рик Хоффман
Описание: В центре сюжета замечательный, но немотивированный молодой человек, так и не закончивший учебу в колледже. У него есть все необходимые качества, чтобы стать хорошим адвокатом, кроме диплома. Но благодаря знаниям законов улицы и напористым, не всегда честным действиям его нанимает влиятельная юридическая фирма из Манхэттена.
Качество: WEB-DL 720p
Формат: MKV
Видео кодек: H.264
Аудио кодек: AC3
Видео: 1280x720 (16:9), 23.976 fps, ~4000 kbps, ~0.18 bit/pixel
Аудио Rus: 48 kHz, 6 ch, ~384 kbps |Gravi-TV|
Аудио Eng: 48 kHz, 6 ch, ~384 kbps |Original|
Все раздачи сериала | Cэмпл | IMDb | Кинопоиск

Озвучка: Alex White & Irene Black + Евгений Бояров (5-6 серии)
Работа со звуком 5.1: Veryserg

Перевод осуществлен специально для
Gravi-TV
на сайте Notabenoid
1 серия: Exinaus, veste и bananas13
2 серия: Exinaus, veste и bananas13
3 серия: Exinaus, s777n, djanardjana, defying, veste, jovannna2
4 серия: Exinaus, s777n, djanardjana, defying, veste, jovannna2, VanRein, doctora_alicia, defying, x0000, asfard, kasta121, bananas13
5 серия: Exinaus, veste
6 серия: veste, muxanick, mamarazzi, 2be_real, Sever303
7 серия: mamarazzi, veste, Cravingluck, muxanick, mortid0
8 серия: mamarazzi, muxanick, MMMarine, lemurko, margery, Fred0, veste
9 серия: veste, lemurko, Cravingluck, elst, Fred0, margery, MMMarine, muxanick
10 серия: blemurko, mamarazzi, veste, MMMarine, margery, comilifo, overshine, defying, Cravingluck, liar4eg, Fred0
11 серия: veste, margery, lemurko, mamarazzi, crew, comilifo, overshine, Cravingluck, Fred0, Anastasy
12 серия: margery, Cravingluck, lemurko, veste, Anastasy, Komediantka, elst, Sadow, liar4eg, comilifo


01 - «Пилот» / «Pilot» - 23.06.2011
02 - «Ошибки и Упущения» / «Errors and Omissions» - 30.06.2011
03 - «Путь к Успеху» / «Inside Track» - 07.07.2011
04 - «Маленькие Грязные Секреты» / «Dirty Little Secrets» - 14.07.2011
05 - «Выручить из Беды» / «Bail Out» - 21.07.2011
06 - «Уловки Сделки» / «Tricks of the Trade» - 28.07.2011
07 - «Поступать, как Подобает Мужчине» / «Play The Man» - 04.08.2011
08 - «Личностный Кризис» / «Identity Crisis» - 11.08.2011
09 - «Непобедимый» / «Undefeated» - 18.08.2011
10 - «Срок Годности» / «The Shelf Life» - 25.08.2011
11 - «Правила Игры» / «Rules of the Game» - 01.09.2011
12 - «Собачьи Бои» / «Dog Fight» - 08.09.2011
Общее
Уникальный идентификатор : 231974716409745488776849686270175819943 (0xAE84B48C67F4277AAE45566C297B38A7)
Полное имя : E:\Suits.s01.WEB-DL.720p.Rus.Eng.[Gravi-TV]\Suits.s01e01.Pilot.WEB-DL.720p.Rus.Eng.[Gravi-TV].mkv
Формат : Matroska
Размер файла : 2,39 Гбайт
Продолжительность : 1 ч. 12 м.
Общий поток : 4721 Кбит/сек
Название фильма : Suits S01E01 by TeddyBlue
Дата кодирования : UTC 2011-07-23 16:22:43
Программа кодирования : mkvmerge v2.0.0 ('After The Rain Has Fallen') built on Jan 13 2007 19:58:56
Библиотека кодирования : libebml v0.7.7 + libmatroska v0.8.0
Видео
Идентификатор : 1
Формат : AVC
Формат/Информация : Advanced Video Codec
Профиль формата : High@L3.1
Параметр CABAC формата : Нет
Параметр ReFrames формата : 2 кадра
Параметры GOP формата : M=2, N=24
Идентификатор кодека : V_MPEG4/ISO/AVC
Продолжительность : 1 ч. 12 м.
Битрейт : 3859 Кбит/сек
Ширина : 1280 пикс.
Высота : 720 пикс.
Соотношение сторон : 16:9
Частота кадров : 23,976 кадр/сек
Цветовое пространство : YUV
Подвыборка цветности : 4:2:0
Битовая глубина : 8 бит
Тип развёртки : Прогрессивная
Бит/(Пиксели*Кадры) : 0.175
Размер потока : 1,95 Гбайт (82%)
Язык : English
Основные цвета : BT.709-5, BT.1361, IEC 61966-2-4, SMPTE RP177
Характеристики трансфера : BT.709-5, BT.1361
Коэффициенты матрицы : BT.709-5, BT.1361, IEC 61966-2-4 709, SMPTE RP177
Аудио #1
Идентификатор : 2
Формат : AC-3
Формат/Информация : Audio Coding 3
Расширение режима : CM (complete main)
Идентификатор кодека : A_AC3
Продолжительность : 1 ч. 12 м.
Вид битрейта : Постоянный
Битрейт : 384 Кбит/сек
Каналы : 6 каналов
Расположение каналов : Front: L C R, Side: L R, LFE
Частота : 48,0 КГц
Битовая глубина : 16 бит
Метод сжатия : С потерями
Размер потока : 199 Мбайт (8%)
Заголовок : Gravi-TV.net
Язык : Russian
Аудио #2
Идентификатор : 3
Формат : AC-3
Формат/Информация : Audio Coding 3
Расширение режима : CM (complete main)
Идентификатор кодека : A_AC3
Продолжительность : 1 ч. 12 м.
Вид битрейта : Постоянный
Битрейт : 384 Кбит/сек
Каналы : 6 каналов
Расположение каналов : Front: L C R, Side: L R, LFE
Частота : 48,0 КГц
Битовая глубина : 16 бит
Метод сжатия : С потерями
Размер потока : 199 Мбайт (8%)
Язык : English
Не забывайте говорить Спасибо. Не уходите с раздачи!   
Торрент: Зарегистрирован [20 янв 2018, 19:45]
Статус:
Проверен
 
.torrent скачан: 2 раз
Хэш: 947746f0742faf20f634d0efcfcd930934fe32da
Размер: 18.14 ГБ (19 474 444 423 байт)
   Стать Автором раздачи
   
Цитата

Вернуться в Форс-мажоры / Suits

Кто сейчас на конференции

Сейчас эту тему просматривают: нет зарегистрированных пользователей и гости: 1